<svg xmlns="http://www.w3.org/2000/svg">
<defs>
<font id="UTMAvoBold" horiz-adv-x="1552" >
  <font-face 
    font-family="UTM Avo"
    font-weight="700"
    font-stretch="normal"
    units-per-em="2048"
    panose-1="2 4 6 3 5 5 6 2 2 4"
    ascent="1638"
    descent="-410"
    x-height="1137"
    cap-height="1516"
    bbox="-118 -541 4942 2460"
    underline-thickness="109"
    underline-position="-143"
    unicode-range="U+0020-2026"
  />
<missing-glyph horiz-adv-x="5040" 
d="M3351 2045h10q37 -10 37 -52q0 -12 -32 -57h-28q0 24 28 54l2 10q-5 13 -10 15h-9q-8 0 -10 -19h-30q6 49 42 49zM2019 2016l29 -31q0 -16 -40 -30h-19l-59 12l-11 -12l-28 25q11 29 43 29h11l42 -11h2q10 0 30 18zM468 1980h142v-60h-94v-75h89v-59h-89v-129l-5 -5h-49
v323zM1155 1980h43l6 -5v-78h30v-52h-30v-188l-6 -5h-49v193h-25v52h25v78zM1621 1980h42l4 -5v-94h3q23 24 54 24h2q58 0 83 -71l2 -39v-143h-52v115q0 80 -42 80h-7q-43 0 -43 -86v-109h-51v323zM2200 1980h49l5 -5v-222q10 -51 45 -51q44 7 44 59v214l5 5h49v-216
q0 -85 -66 -112q-15 -8 -35 -8q-47 0 -82 55q-14 24 -14 57v224zM2435 1980h159v-60h-56v-268h-53v268h-55v55zM2621 1980h71q7 -4 83 -251h2l80 251h73v-328h-54v242h-2l-74 -242h-44q-4 0 -58 182l-19 60h-3v-242h-55v328zM3760 1980h52v-328h-45l-5 5v11l3 2l-3 14
q-29 -40 -78 -40q-67 0 -100 91l-5 39v3q0 94 92 125l23 3q35 0 63 -32h3v107zM2057 1928h36l4 -6v-49h-45v-221h-48v23q-23 -31 -59 -31q-89 14 -89 97v156h51v-104q0 -79 26 -86l18 -5h6q26 0 39 36l3 26v133h53v25zM3476 1928v-55h-31v-221h-47v25h-2q-15 -33 -57 -33
q-68 0 -86 78l-3 29v146h52v-120q0 -50 19 -68l21 -7h9q42 0 42 69v126h27q4 0 4 28l3 3h49zM758 1905q68 0 103 -77q9 -18 12 -54q0 -88 -90 -127l-32 -3q-63 0 -101 73q-12 22 -12 52v10q0 94 101 126h19zM1011 1905h3q74 0 83 -101v-152h-51v119q0 76 -42 76h-5
q-44 0 -44 -76v-119h-52v245h46v-21q30 29 62 29zM1466 1905h7q72 0 105 -89h-60q-16 31 -42 31h-17q-53 -14 -53 -61l-3 -15q12 -69 61 -69h9q22 0 47 27h40l2 3h3l2 -3l2 3l3 -3l2 3l2 -7q-33 -81 -110 -81q-76 0 -110 94l-4 36v3q0 85 77 120q15 8 37 8zM3141 1905h2

<glyph glyph-name=".notdef" horiz-adv-x="5040" 
d="M3351 2045h10q37 -10 37 -52q0 -12 -32 -57h-28q0 24 28 54l2 10q-5 13 -10 15h-9q-8 0 -10 -19h-30q6 49 42 49zM2019 2016l29 -31q0 -16 -40 -30h-19l-59 12l-11 -12l-28 25q11 29 43 29h11l42 -11h2q10 0 30 18zM468 1980h142v-60h-94v-75h89v-59h-89v-129l-5 -5h-49
v323zM1155 1980h43l6 -5v-78h30v-52h-30v-188l-6 -5h-49v193h-25v52h25v78zM1621 1980h42l4 -5v-94h3q23 24 54 24h2q58 0 83 -71l2 -39v-143h-52v115q0 80 -42 80h-7q-43 0 -43 -86v-109h-51v323zM2200 1980h49l5 -5v-222q10 -51 45 -51q44 7 44 59v214l5 5h49v-216
q0 -85 -66 -112q-15 -8 -35 -8q-47 0 -82 55q-14 24 -14 57v224zM2435 1980h159v-60h-56v-268h-53v268h-55v55zM2621 1980h71q7 -4 83 -251h2l80 251h73v-328h-54v242h-2l-74 -242h-44q-4 0 -58 182l-19 60h-3v-242h-55v328zM3760 1980h52v-328h-45l-5 5v11l3 2l-3 14
q-29 -40 -78 -40q-67 0 -100 91l-5 39v3q0 94 92 125l23 3q35 0 63 -32h3v107zM2057 1928h36l4 -6v-49h-45v-221h-48v23q-23 -31 -59 -31q-89 14 -89 97v156h51v-104q0 -79 26 -86l18 -5h6q26 0 39 36l3 26v133h53v25zM3476 1928v-55h-31v-221h-47v25h-2q-15 -33 -57 -33
q-68 0 -86 78l-3 29v146h52v-120q0 -50 19 -68l21 -7h9q42 0 42 69v126h27q4 0 4 28l3 3h49zM758 1905q68 0 103 -77q9 -18 12 -54q0 -88 -90 -127l-32 -3q-63 0 -101 73q-12 22 -12 52v10q0 94 101 126h19zM1011 1905h3q74 0 83 -101v-152h-51v119q0 76 -42 76h-5
q-44 0 -44 -76v-119h-52v245h46v-21q30 29 62 29zM1466 1905h7q72 0 105 -89h-60q-16 31 -42 31h-17q-53 -14 -53 -61l-3 -15q12 -69 61 -69h9q22 0 47 27h40l2 3h3l2 -3l2 3l3 -3l2 3l2 -7q-33 -81 -110 -81q-76 0 -110 94l-4 36v3q0 85 77 120q15 8 37 8zM3141 1905h2
q49 0 70 -60v-14h-52q0 16 -16 16h-4q-14 0 -19 -13v-13q0 -9 68 -35q30 -19 30 -59q0 -58 -61 -80l-23 -3q-76 12 -76 83h54q0 -20 27 -25h4q19 0 24 23q0 22 -68 44q-34 27 -34 59q0 66 74 77zM4203 1905q55 0 77 -63q7 -18 7 -65v-125h-52v112q0 83 -40 83h-11
q-33 0 -40 -54v-141h-52v5h-2l2 2v238h47v-21q25 29 64 29zM4432 1905h5q40 0 69 -40v18l-3 3l3 11h47v-208q0 -97 -85 -132l-33 -4h-7q-70 0 -104 80h59q24 -22 45 -23h13q22 0 43 22q15 13 22 52h-3q-32 -40 -73 -40q-57 0 -96 70q-10 18 -14 63q0 88 87 125zM3851 1897
h53v-136q6 -59 40 -59h7q46 0 46 93v102h51v-245h-47l-3 10h3l-3 3v5l3 2v3h-4q0 -23 -57 -31h-3q-59 0 -84 75l-2 85v93zM690 1771q10 -69 63 -69h7q59 14 59 65v15q-13 65 -59 65h-5q-58 0 -65 -76zM3630 1774q13 -72 61 -72h5q58 0 66 75q0 49 -51 70h-22q-37 0 -56 -57z
M4374 1774q8 -72 65 -72h5q59 12 59 72q0 61 -59 73h-14q-56 -16 -56 -62v-11zM3928 1620h52v-57h-52v57zM1054 1402q43 -11 43 -49v-4q0 -17 -32 -60h-28q0 25 31 57v7q0 12 -7 15h-12q-10 -4 -10 -19h-28v6q0 32 33 44zM3349 1339q92 0 138 -99h-60q-37 42 -80 42
q-55 0 -87 -68q-10 -22 -10 -47q0 -78 81 -110l18 -1q36 0 75 39h61q-44 -97 -138 -97q-93 0 -141 112q-10 31 -10 62q0 97 90 152q29 15 63 15zM3664 1339q57 0 103 -47q46 -51 46 -115v-20q0 -89 -91 -146q-33 -13 -63 -13q-89 0 -138 101q-13 33 -13 60v18q0 98 98 151
q29 11 58 11zM2261 1337h2l47 -11h3q11 0 26 11l18 -36q-18 -19 -35 -19h-3l-54 10l-20 -7l-20 36q18 16 36 16zM716 1334h19q118 0 129 -26q25 -26 25 -62q-10 -57 -30 -57v-6q47 -23 47 -66v-18q0 -63 -69 -88l-54 -5h-67v328zM2550 1334h53v-217q6 -61 45 -61q29 0 44 39
l3 30v203l4 6h45l5 -6v-171q0 -118 -40 -133q-24 -26 -64 -26q-55 0 -91 76l-4 54v206zM2805 1334h59q4 0 122 -237h4v237h50l4 -6v-322h-58q-29 48 -125 238h-3v-238h-53v328zM3101 1334h54v-328h-54v328zM3859 1334h8q155 0 174 -40q23 -11 47 -75l4 -36v-11l3 -2
q0 -94 -82 -149q-35 -15 -99 -15h-55v328zM4141 1334h153v-60h-103v-75h101v-57h-101v-74l4 -5h99v-57h-157v322zM3563 1175v-10q0 -76 79 -108l19 -1q68 0 96 86l3 20v15q0 61 -60 94q-12 8 -39 11q-66 0 -96 -83zM770 1274v-67h9q54 0 54 28l3 14q-11 25 -29 25h-37z
M3912 1274v-206l2 -3v-2q104 0 122 76l2 15v29q0 34 -32 68q-25 23 -78 23h-16zM1041 1259h5q38 0 71 -40v32h49v-245h-49v32q-36 -40 -80 -40q-75 0 -101 97l-5 36q0 89 85 125zM1314 1259h3q74 0 83 -102v-151h-51v128q0 67 -42 67h-10q-34 0 -39 -62v-133h-52v245h47v-21
q28 29 61 29zM1543 1259h5q45 0 71 -40v32h47v-219q0 -95 -104 -126h-16q-74 0 -108 82h59q26 -25 44 -25h14q52 0 64 77q-33 -42 -76 -42q-60 0 -101 81l-7 44v16q0 79 85 117zM1912 1259h2q43 0 61 -37h2q32 37 69 37h4q57 0 79 -55q8 -25 8 -45v-153h-52v138q0 44 -23 55
l-12 2h-15q-32 0 -36 -65v-130h-52v136q0 59 -43 59h-8q-32 0 -36 -57v-138h-54v245h50v-21h2q6 24 54 29zM2282 1259q47 0 75 -42v34h47v-245h-47v32q-36 -40 -78 -40q-74 0 -102 92l-6 41q0 90 85 125zM985 1117q0 -48 61 -61h4q45 0 62 46l3 15v22q-12 62 -57 62h-14
q-41 0 -59 -57v-27zM1487 1128q0 -48 43 -68l18 -4h5q47 0 63 57v23q-11 65 -58 65h-12q-50 0 -59 -73zM2225 1131v-14q15 -61 57 -61h14q58 12 58 64v11q0 45 -37 65l-18 5h-10q-64 -8 -64 -70zM770 1150v-82q0 -5 7 -5q77 0 77 45q0 34 -47 42h-37zM2966 753l24 -28
l-51 -55q-18 12 -27 26zM1524 727l85 -54q0 -15 -21 -42l-87 54q18 41 23 42zM2850 693h38l55 -60h-54l-21 26l-23 -26h-54q54 60 59 60zM3422 693h40l56 -60h-54l-24 26h-1q0 -5 -19 -26h-54zM622 685h52q8 -4 47 -137l34 -110q9 8 34 100l48 147h54v-2l-112 -326h-44z
M1159 685h51v-54h-51v54zM1354 685h46l6 -5v-323h-52v328zM2317 685h45l4 -5v-78h31v-52h-31v-193h-53v193h-26v52h26v78zM2425 685h52v-98h2q23 23 54 23h3q57 0 81 -71l3 -38v-144h-52v115q0 81 -39 81h-10q-42 0 -42 -87v-109h-52v328zM2664 685h52v-54h-52v54zM3028 685
h44l6 -5v-78h29v-52h-29v-193h-54v193h-27v52h27v78zM3234 685h52v-328h-52v328zM3957 685h52v-328h-52v328zM4316 685h51v-54h-51v54zM1555 610h5q83 0 110 -102l3 -23v-11q0 -83 -85 -120l-35 -5q-76 0 -111 97l-4 32q0 97 93 130zM1811 610h4q53 0 78 -60q7 -25 7 -81
v-112h-54v146q-7 50 -37 50h-10q-38 0 -42 -57v-139h-54v245h49v-21q26 29 59 29zM2046 610h4q45 0 63 -39h3v31h49v-206q0 -102 -89 -135l-28 -3h-5q-73 0 -106 81h52l37 -20l15 -3h14q50 0 61 72q-33 -39 -73 -39q-62 0 -98 76q-11 23 -12 60q0 85 86 123zM2866 610h2
q82 0 111 -104l2 -25l-2 -27h-172q15 -45 45 -45l14 -3q29 0 49 22h57v-3q-35 -76 -108 -76q-77 0 -111 97l-1 28v8q0 49 32 89q34 39 82 39zM3429 610h5q41 0 70 -39h2v31h47v-245h-47v31h-2q-35 -39 -77 -39q-71 0 -101 89l-5 36v14q0 86 84 120zM3711 610h7
q88 0 107 -128l-2 -1v-15q0 -65 -66 -106q-21 -11 -46 -11q-34 0 -64 32v-99l-5 -5h-49v325h49v-28q31 36 69 36zM4151 610q44 0 75 -39v31h49v-245h-49v31q-35 -39 -77 -39q-92 0 -108 132q0 84 73 121q15 8 37 8zM922 602h50v-136q3 -60 42 -60h5q44 0 44 87v109h52v-245
h-47v24h-5q0 -23 -56 -32h-3q-55 0 -82 68q-4 35 -4 99v81zM1159 602h51v-245h-51v245zM2664 602h52v-245h-52v245zM4316 602h51v-245h-51v245zM1492 488v-16q13 -66 59 -66h4q59 0 66 76q-13 71 -59 71h-11q-59 -16 -59 -65zM1987 472q15 -66 59 -66h11q48 0 59 75v1
q-13 71 -59 71h-14q-39 0 -56 -57v-24zM2805 506h122v2q-16 45 -59 45h-7q-35 0 -56 -47zM3373 474q13 -68 61 -68h5q52 0 65 63v12q-10 72 -57 72h-16q-56 -14 -56 -63zM3642 478q12 -72 61 -72h3q50 0 65 60v22q0 43 -49 65h-22q-47 0 -58 -72v-3zM4095 472q10 -66 66 -66
q43 0 61 48l2 15v16q0 54 -52 68h-18q-42 0 -59 -60v-21zM3416 321h51v-52h-51v52zM4137 321h51v-52h-51v52zM2733 133h4q35 0 43 -50v-2q0 -16 -24 -41l-10 -17h-28q0 25 28 56l3 2v2q-3 19 -9 19h-10q-8 0 -9 -19h-30q6 50 42 50zM1546 116l52 -60l-26 -19l-52 52zM352 79
h4q75 -48 85 -60l-20 -37q-88 49 -88 58zM3490 79l86 -58l-18 -39q-10 0 -91 55q15 36 23 42zM4578 76l19 -42l-91 -52l-20 39l92 58v-3zM1204 53h51v-19l5 -5h14v-36h-14l-5 -5v-279h-46v31q-34 -40 -81 -40q-72 0 -102 105l-3 26q0 102 101 131h14q33 0 66 -33v59l-6 5
h-43v36h49v24zM1480 45h40l56 -61h-53l-23 27l-23 -27h-53zM2641 45h33q12 0 63 -61h-54l-23 27q-19 -21 -19 -27h-58v4zM49 37h160v-60h-56v-268h-50l-4 5v245l2 3v2l-2 2l2 3l-2 2l2 3l-2 3h-54v54zM699 37h47v-73l2 -2l-2 -3v-3l2 -2l-2 -3v-3l2 -2v-2l-2 -3l2 -3h3
q17 24 51 24h3q53 0 77 -58q7 -17 7 -42v-153h-52v127q0 68 -40 68h-8q-43 0 -43 -86v-109h-52v322zM1297 37h47l5 -6v-49h-52v55zM1987 37h52v-198l70 115h62l-78 -118l90 -125v-2h-70q-10 22 -74 115v-115h-52v328zM2271 37v-99q24 24 53 24q57 0 80 -56q10 -19 10 -77
v-120h-54v133q0 62 -41 62h-11q-31 0 -37 -55v-140h-53v314l-1 3v3l1 2l-1 3l1 3h53zM2458 37h51v-55h-51v55zM3148 37h51v-108q27 33 68 33h3q75 0 105 -94l5 -37q0 -75 -64 -120q-30 -11 -49 -11q-41 0 -72 40v-31h-47v328zM4275 37h52v-99h2q23 24 54 24h3q60 0 82 -74
l2 -41v-138h-52v111q0 82 -32 82l-10 2h-12q-37 0 -37 -80v-115h-52v328zM329 -38h3v-58h-5q-42 0 -42 -57v-138h-53v245h47v-21q18 29 50 29zM564 -38q71 0 86 -87v-166h-51v136q-6 59 -41 59h-6q-45 0 -45 -84v-111h-52v245h50v-21q25 29 59 29zM1504 -38q72 0 105 -94
l5 -39q-2 -24 -7 -24h-169q17 -47 62 -47q24 0 48 21h57q-33 -79 -108 -79q-82 0 -113 105v37q0 81 89 117zM2657 -38h5q77 0 107 -97l3 -26v-21l-3 -13h-170q18 -47 53 -47h12q21 0 42 21h59q-34 -79 -105 -79q-84 0 -115 102l-2 29q0 93 91 128zM2915 -38h4q54 0 78 -60
q7 -25 7 -82v-111h-54v138q0 48 -35 57h-11q-38 0 -43 -57v-138h-54v245h50v-21q25 29 58 29zM3508 -38h6q40 0 70 -40h2v32h47v-245h-47v31h-2q-34 -40 -78 -40q-71 0 -101 90l-4 37v12q0 82 77 117q11 6 30 6zM3781 -38h4q62 0 82 -78l3 -84v-91h-54v138q0 48 -38 57h-9
q-38 0 -42 -52v-143h-54v245h49v-21q26 29 59 29zM4133 -38h1q74 0 104 -93l4 -40q0 -88 -84 -126l-25 -3q-41 0 -68 34v-106h-52v326h47v-29q30 37 73 37zM4714 -38h5q34 0 63 -37q27 37 69 37h6q56 0 79 -66l6 -51v-136h-52v122q0 73 -39 73h-7q-35 0 -41 -50v-140l-5 -5
h-48v140q0 42 -31 55h-17q-40 0 -40 -77v-118h-51v245h47v-21q22 29 56 29zM359 -46h49l5 -6v-234l-5 -5h-49v245zM1297 -46h52v-245h-52v245zM1649 -46h52v-136q4 -60 43 -60h4q44 0 44 81v115h52v-245h-47v24h-5q-12 -33 -59 -33q-52 0 -79 63q-5 12 -5 34v157zM2458 -46
h51v-245h-51v245zM4515 -46h51v-245h-51v245zM1077 -169q0 -53 51 -73h12q54 0 66 66v10q0 53 -54 70h-17q-38 0 -58 -57v-16zM1438 -143h122q-18 47 -53 47h-7q-43 0 -62 -44v-3zM2599 -143h122q-21 47 -54 47h-7q-46 0 -61 -47zM3196 -158v-11q10 -73 61 -73h5q64 8 64 71
v5q0 45 -38 65l-18 5h-14q-60 -14 -60 -62zM3452 -173q14 -69 62 -69h11q41 0 59 60v13q-8 73 -56 73h-17q-47 0 -59 -73v-4zM4062 -158v-22q0 -47 59 -62h9q50 0 61 76q-13 70 -58 70h-15q-56 -17 -56 -62z" />
    <glyph glyph-name=".null" horiz-adv-x="0" 
 />
    <glyph glyph-name="nonmarkingreturn" horiz-adv-x="571" 
 />
    <glyph glyph-name="space" unicode=" " horiz-adv-x="632" 
 />
    <glyph glyph-name="exclam" unicode="!" horiz-adv-x="681" 
d="M165 500v1016h350v-1016h-350zM165 0v348h350v-348h-350z" />
    <glyph glyph-name="quotedbl" unicode="&#x22;" horiz-adv-x="948" 
d="M808 907h-219l-67 609h356zM356 907h-219l-68 609h356z" />
    <glyph glyph-name="numbersign" unicode="#" horiz-adv-x="1265" 
d="M1173 825h-229l-21 -149h227l-30 -227h-230l-49 -357h-231l49 357h-160l-49 -357h-233l49 357h-203l31 227h205l20 149h-205l31 228h205l45 323h233l-45 -323h160l45 323h233l-45 -323h228zM552 825l-20 -149h160l20 149h-160z" />
    <glyph glyph-name="dollar" unicode="$" horiz-adv-x="860" 
d="M1010 215q-87 -108 -231 -156v-215h-276v207q-166 36 -250 139q-90 112 -90 269h350q9 -146 121 -146q117 0 117 121q0 82 -90 135q-33 20 -92 44l-106 43q-63 27 -106 53q-55 34 -92 74q-90 99 -90 257q0 324 328 414v207h276v-207q289 -67 285 -379v-10h-317
q-8 129 -113 129q-111 0 -111 -115q0 -81 103 -139q36 -20 91 -41l83 -31q137 -53 215 -149q86 -104 86 -244q0 -147 -91 -260z" />
    <glyph glyph-name="percent" unicode="%" horiz-adv-x="1757" 
d="M1574 79q-108 -110 -260 -110q-154 0 -262 109q-109 108 -109 262t109 262q108 109 262 109q153 0 261 -110q108 -108 108 -261q0 -152 -109 -261zM677 0h-235l626 1516h238zM702 915q-108 -108 -260 -108t-261 108q-108 108 -108 261q0 152 108 261t261 109t261 -108
q107 -109 107 -262t-108 -261zM1314 483q-143 0 -143 -143t143 -143q141 0 141 143t-141 143zM442 1319q-142 0 -142 -143q0 -142 142 -142q141 0 141 144q0 141 -141 141z" />
    <glyph glyph-name="ampersand" unicode="&#x26;" 
d="M1376 610q-50 -116 -115 -200l207 -213l-231 -228l-179 185q-105 -91 -208 -136q-115 -49 -244 -49q-200 0 -348 118q-158 127 -158 323q0 137 83 244q36 46 90 91q43 37 108 80q-144 147 -144 328q0 170 126 282q122 109 294 109q165 0 279 -103q118 -107 118 -270
q0 -111 -58 -201q-50 -76 -151 -147l179 -180l110 248h359zM659 1270q-92 0 -92 -101q0 -44 27 -89q19 -33 59 -74q22 22 35 36q18 20 30 38q29 46 29 94q0 96 -88 96zM589 621q-55 -44 -79 -75q-37 -48 -37 -102q0 -149 174 -149q114 0 184 82z" />
    <glyph glyph-name="quotesingle" unicode="'" horiz-adv-x="643" 
d="M499 1085q0 -104 -51 -172q-57 -75 -158 -75h-147v182l51 -1q32 1 53 6q58 14 58 73v69h-162v349h356v-431z" />
    <glyph glyph-name="parenleft" unicode="(" horiz-adv-x="968" 
d="M881 -541q-343 130 -543 403q-205 281 -205 640q0 360 206 640q199 273 542 402v-356q-171 -95 -273 -296q-96 -189 -96 -394q0 -204 96 -392q102 -199 273 -292v-355z" />
    <glyph glyph-name="parenright" unicode=")" horiz-adv-x="968" 
d="M631 -140q-200 -273 -543 -401v355q170 94 273 296q96 188 96 394q0 204 -96 391q-103 200 -273 293v356q342 -129 542 -403q206 -281 206 -641t-205 -640z" />
    <glyph glyph-name="asterisk" unicode="*" horiz-adv-x="1372" 
d="M868 1020l170 -225l-191 -144l-168 236l-161 -236l-191 144l176 225l-268 84l74 223l262 -98l-6 287h243l-14 -287l264 98l78 -223z" />
    <glyph glyph-name="plus" unicode="+" horiz-adv-x="1228" 
d="M778 354v-354h-328v354h-352v328h352v354h328v-354h352v-328h-352z" />
    <glyph glyph-name="comma" unicode="," horiz-adv-x="643" 
d="M499 -82q0 -102 -52 -171q-58 -77 -157 -77h-145v183l51 -1q32 0 52 6q57 14 57 72v70h-160v348h354v-430z" />
    <glyph glyph-name="hyphen" unicode="-" horiz-adv-x="575" 
d="M0 424v334h575v-334h-575z" />
    <glyph glyph-name="hyphen" unicode="&#x2010;" horiz-adv-x="575" 
d="M0 424v334h575v-334h-575z" />
    <glyph glyph-name="period" unicode="." horiz-adv-x="643" 
d="M145 0v348h354v-348h-354z" />
    <glyph glyph-name="slash" unicode="/" horiz-adv-x="1214" 
d="M526 -205h-379l543 1721h377z" />
    <glyph glyph-name="zero" unicode="0" horiz-adv-x="1265" 
d="M1197 547q0 -177 -74 -309q-80 -140 -235 -211q-116 -56 -250 -56q-118 0 -231 47q-340 143 -340 529v422q0 393 342 530q116 45 229 45q117 0 232 -49q327 -143 327 -526v-422zM810 979q0 101 -36 157q-45 68 -142 68q-92 0 -139 -69q-39 -59 -39 -156v-442
q0 -98 39 -157q46 -69 139 -69q97 0 142 68q36 57 36 158v442z" />
    <glyph glyph-name="one" unicode="1" horiz-adv-x="1265" 
d="M460 0v1190h-248v326h635v-1516h-387z" />
    <glyph glyph-name="two" unicode="2" horiz-adv-x="1265" 
d="M104 0v301q75 49 125 83q66 45 119 86q126 97 219 200q38 41 70 82q39 50 68 97q71 117 71 208q0 147 -143 147q-94 0 -137 -77q-32 -57 -37 -162h-369q3 110 20 181q20 90 70 167q74 114 203 175q120 56 264 56q156 0 279 -64q135 -70 198 -202q39 -88 39 -174
q0 -117 -47 -232q-41 -102 -120 -206q-65 -86 -162 -181q-39 -38 -88 -82q-34 -32 -87 -77h514v-326h-1069z" />
    <glyph glyph-name="three" unicode="3" horiz-adv-x="1265" 
d="M1005 99q-166 -128 -381 -128q-139 0 -263 52q-141 57 -210 161q-39 59 -59 129q-16 57 -25 140h391q32 -142 176 -142q164 0 164 170q0 116 -125 145q-44 10 -111 10l-104 -1v285h43q25 0 44 1q50 4 83 16q86 32 86 134q0 133 -106 133q-116 0 -119 -131h-381
q3 219 154 349q143 122 364 122q191 0 328 -109q147 -118 147 -305q0 -209 -200 -317q284 -97 284 -367q0 -208 -180 -347z" />
    <glyph glyph-name="four" unicode="4" horiz-adv-x="1265" 
d="M1068 266v-266h-370v266h-668v283l678 967h360v-947h168v-303h-168zM722 1044h-4l-299 -475h303v475z" />
    <glyph glyph-name="five" unicode="5" horiz-adv-x="1265" 
d="M1167 307q-146 -338 -536 -338q-216 0 -373 112q-166 119 -205 325h389q68 -95 178 -95q84 0 144 59q61 59 61 142q0 199 -207 199q-142 0 -198 -131l-314 77l131 859h838v-326h-541l-32 -207q82 45 204 45q338 0 465 -305q41 -98 41 -203q0 -110 -45 -213z" />
    <glyph glyph-name="six" unicode="6" horiz-adv-x="1265" 
d="M1059 135q-168 -164 -418 -164q-260 0 -428 162q-170 164 -170 424q0 105 39 213q35 96 100 193l377 553h449l-334 -457l4 -4q15 5 36 7l38 1q210 0 346 -153q131 -148 131 -361q0 -249 -170 -414zM780 665q-61 58 -151 58q-87 0 -146 -57q-59 -58 -59 -144
q0 -88 58 -149q59 -62 147 -62t150 58q63 59 63 147q0 90 -62 149z" />
    <glyph glyph-name="seven" unicode="7" horiz-adv-x="1265" 
d="M588 0h-426l559 1190h-588v326h987v-297z" />
    <glyph glyph-name="eight" unicode="8" horiz-adv-x="1265" 
d="M1012 100q-162 -129 -378 -129q-217 0 -380 129q-175 139 -175 351q0 281 238 383q-148 112 -148 284q0 190 139 311q132 115 324 115q190 0 323 -114q140 -120 140 -308q0 -172 -148 -288q238 -101 238 -383q0 -212 -173 -351zM634 1231q-141 0 -141 -139
q0 -140 137 -140q141 0 141 144q0 135 -137 135zM632 657q-166 0 -166 -172q0 -174 172 -174q67 0 115 53q45 51 45 119q0 174 -166 174z" />
    <glyph glyph-name="nine" unicode="9" horiz-adv-x="1265" 
d="M1192 754q-35 -95 -105 -199l-377 -555h-449l334 459l-4 4q-15 -6 -37 -7q-8 -1 -19 -1h-18q-102 0 -201 49q-276 136 -276 465q0 250 169 413q168 162 419 162q302 0 477 -198q127 -144 127 -371q0 -113 -40 -221zM785 1144q-60 60 -149 60q-87 0 -147 -57
q-62 -59 -62 -146q0 -88 60 -147t149 -59q88 0 147 55q62 58 62 145q0 89 -60 149z" />
    <glyph glyph-name="colon" unicode=":" horiz-adv-x="643" 
d="M145 788v349h354v-349h-354zM145 0v348h354v-348h-354z" />
    <glyph glyph-name="semicolon" unicode=";" horiz-adv-x="643" 
d="M145 788v349h354v-349h-354zM499 -82q0 -102 -52 -171q-58 -77 -157 -77h-145v183l51 -1q32 0 52 6q57 14 57 72v70h-160v348h354v-430z" />
    <glyph glyph-name="less" unicode="&#x3c;" horiz-adv-x="1228" 
d="M94 360v316l1040 438v-358l-696 -236v-4l696 -235v-359z" />
    <glyph glyph-name="equal" unicode="=" horiz-adv-x="1228" 
d="M98 625v327h1032v-327h-1032zM98 84v328h1032v-328h-1032z" />
    <glyph glyph-name="greater" unicode="&#x3e;" horiz-adv-x="1228" 
d="M94 -78v359l696 235v4l-696 236v358l1040 -438v-316z" />
    <glyph glyph-name="question" unicode="?" horiz-adv-x="1212" 
d="M1070 901q-24 -40 -60 -81q-28 -31 -70 -70l-70 -65q-39 -37 -62 -64q-63 -72 -69 -140h-356q1 95 56 184q23 36 57 75q25 28 64 67l65 64q34 35 55 62q55 70 55 134q0 127 -119 127q-84 0 -117 -61q-22 -42 -24 -136h-375q-1 9 -2 19v18q0 226 157 370q153 140 382 140
q312 0 442 -246q49 -91 49 -188q0 -112 -58 -209zM383 0v348h356v-348h-356z" />
    <glyph glyph-name="at" unicode="@" horiz-adv-x="1531" 
d="M1485 655q-45 -132 -135 -223q-104 -106 -230 -106q-149 0 -200 147q-89 -147 -244 -147q-141 0 -231 113q-84 104 -84 249q0 174 111 312q119 147 288 147q158 0 203 -121h4l16 96h213l-85 -498q-5 -31 -5 -53q0 -53 55 -53q53 0 100 80q17 30 32 68q12 31 18 57
q18 74 18 151q0 219 -154 356q-149 132 -370 132q-254 0 -429 -183q-173 -180 -173 -436q0 -115 41 -225q66 -184 215 -277q141 -87 344 -87q229 0 432 75l43 -188q-107 -38 -234 -57q-115 -17 -241 -17q-263 0 -456 120q-203 124 -296 362q-57 146 -57 299q0 337 232 569
q233 231 571 231q302 0 509 -183q216 -191 216 -488q0 -114 -37 -222zM787 954q-91 0 -152 -86q-55 -77 -55 -172q0 -178 153 -178q94 0 146 93q43 76 43 177q0 166 -135 166z" />
    <glyph glyph-name="A" unicode="A" 
d="M1114 0l-74 219h-526l-80 -219h-416l608 1516h305l603 -1516h-420zM782 1044h-6l-156 -518h318z" />
    <glyph glyph-name="B" unicode="B" horiz-adv-x="1325" 
d="M1114 131q-105 -90 -233 -115q-53 -11 -124 -14q-29 -1 -67 -2h-553v1516h467q88 0 134 -3q73 -4 128 -17q136 -31 223 -128q90 -99 90 -250q0 -206 -176 -305q250 -86 250 -352q0 -212 -139 -330zM763 1154q-36 22 -106 22h-149v-236h147q154 0 154 121q0 66 -46 93z
M826 592q-44 24 -124 24h-194v-276h192q82 0 127 30q55 37 55 115q0 75 -56 107z" />
    <glyph glyph-name="C" unicode="C" horiz-adv-x="1703" 
d="M1640 567q-66 -267 -279 -432q-211 -164 -487 -164q-332 0 -565 228q-234 229 -234 561q0 331 232 559q231 225 563 225q432 0 667 -356q82 -123 103 -248h-406q-101 264 -366 264q-179 0 -295 -133q-111 -128 -111 -309q0 -183 111 -313q117 -138 297 -138
q248 0 364 256h406z" />
    <glyph glyph-name="D" unicode="D" horiz-adv-x="1519" 
d="M646 0h-530v1516h502q112 0 196 -11q98 -13 177 -42q177 -64 296 -230q140 -194 140 -471q0 -762 -781 -762zM952 1056q-96 120 -281 120h-168v-836h166q190 0 284 116q87 106 87 300q0 191 -88 300z" />
    <glyph glyph-name="E" unicode="E" horiz-adv-x="1081" 
d="M137 0v1516h842v-340h-471v-236h456v-340h-456v-260h471v-340h-842z" />
    <glyph glyph-name="F" unicode="F" horiz-adv-x="1036" 
d="M508 1176v-258h440v-340h-440v-578h-371v1516h827v-340h-456z" />
    <glyph glyph-name="G" unicode="G" horiz-adv-x="1748" 
d="M1685 782q0 -349 -230 -581q-231 -232 -579 -232q-336 0 -570 229q-235 231 -235 566q0 336 239 561q234 219 572 219q252 0 467 -147q223 -152 291 -389h-434q-110 196 -334 196q-182 0 -300 -130q-114 -126 -114 -310q0 -192 111 -320q117 -135 305 -135q131 0 226 59
q102 64 136 185h-452v309h899q1 -18 2 -40v-40z" />
    <glyph glyph-name="H" unicode="H" horiz-adv-x="1544" 
d="M1020 0v606h-496v-606h-387v1516h387v-570h496v570h387v-1516h-387z" />
    <glyph glyph-name="I" unicode="I" horiz-adv-x="661" 
d="M137 0v1516h387v-1516h-387z" />
    <glyph glyph-name="J" unicode="J" horiz-adv-x="1183" 
d="M1044 600q0 -74 -1 -112q-3 -63 -11 -113q-20 -126 -82 -205q-160 -199 -428 -199q-110 0 -205 37q-155 56 -233 186q-72 120 -72 293h412q4 -76 23 -116q28 -60 93 -60q74 0 100 65q17 41 17 128v1012h387v-916z" />
    <glyph glyph-name="K" unicode="K" horiz-adv-x="1447" 
d="M983 0l-414 655h-4v-655h-387v1516h387v-682h4l428 682h406l-502 -756l534 -760h-452z" />
    <glyph glyph-name="L" unicode="L" horiz-adv-x="997" 
d="M147 0v1516h387v-1176h449v-340h-836z" />
    <glyph glyph-name="M" unicode="M" horiz-adv-x="1873" 
d="M1380 0l12 1135l-4 4l-323 -1139h-256l-324 1139l-4 -4l12 -1135h-356v1516h498l301 -998h4l297 998h499v-1516h-356z" />
    <glyph glyph-name="N" unicode="N" horiz-adv-x="1554" 
d="M1079 0l-577 922l-5 -2l11 -920h-371v1516h334l586 -953l4 4l-17 949h371v-1516h-336z" />
    <glyph glyph-name="O" unicode="O" horiz-adv-x="1742" 
d="M1436 196q-233 -225 -568 -225q-326 0 -559 221q-238 224 -238 547q0 172 59 324q31 81 99 170q236 311 641 311q334 0 566 -226q234 -227 234 -560q0 -334 -234 -562zM1171 1068q-119 136 -299 136q-182 0 -300 -132q-114 -127 -114 -310q0 -187 115 -316
q119 -135 303 -135q177 0 295 136q112 129 112 309q0 183 -112 312z" />
    <glyph glyph-name="P" unicode="P" horiz-adv-x="1302" 
d="M1238 788q-44 -114 -120 -182q-91 -79 -207 -108q-89 -23 -235 -23h-168v-475h-371v1516h496q72 0 121 -3q68 -4 124 -14q138 -24 222 -94q178 -151 178 -401q0 -111 -40 -216zM827 1146q-58 30 -176 30h-143v-361h157q112 0 169 34q73 43 73 148q0 107 -80 149z" />
    <glyph glyph-name="Q" unicode="Q" horiz-adv-x="1773" 
d="M1750 -27q-65 -4 -96 -4q-102 0 -190 26q-107 31 -166 93q-191 -119 -426 -119q-329 0 -563 225q-238 228 -238 556q0 333 232 564q231 230 565 230q329 0 566 -221q243 -226 243 -553q0 -252 -125 -438q76 -70 198 -51v-308zM1172 1082q-119 122 -302 122
q-166 0 -277 -111q-104 -103 -133 -272q63 27 105 37q53 14 110 14q159 0 316 -96q133 -83 247 -223q52 89 52 223q0 184 -118 306zM959 442q-46 47 -92 77q-105 71 -233 71q-64 0 -135 -25q108 -256 369 -256q104 0 176 39q-48 57 -85 94z" />
    <glyph glyph-name="R" unicode="R" horiz-adv-x="1337" 
d="M862 0l-350 489h-4v-489h-371v1516h479q76 0 122 -3q68 -3 122 -13q136 -23 223 -93q187 -150 187 -414q0 -181 -99 -311q-103 -138 -278 -166l411 -516h-442zM824 1129q-65 47 -175 47h-141v-422h137q254 0 254 217q0 105 -75 158z" />
    <glyph glyph-name="S" unicode="S" horiz-adv-x="1173" 
d="M974 85q-140 -114 -376 -114q-241 0 -388 120q-159 128 -159 362v49h385q0 -84 37 -141q42 -66 121 -66q147 0 147 145q0 66 -51 107q-20 16 -52 32l-29 14l-165 71q-82 34 -141 69q-70 41 -118 89q-111 113 -111 276q0 201 168 329q154 117 362 117q117 0 224 -42
q116 -46 186 -130q94 -116 100 -299h-383q-22 148 -139 148q-133 0 -133 -119q0 -42 14 -64q23 -39 139 -96l160 -72q84 -38 140 -73q68 -42 112 -89q102 -108 102 -272q0 -228 -152 -351z" />
    <glyph glyph-name="T" unicode="T" horiz-adv-x="1021" 
d="M706 1176v-1176h-387v1176h-299v340h983v-340h-297z" />
    <glyph glyph-name="U" unicode="U" horiz-adv-x="1429" 
d="M1296 600q0 -155 -26 -251q-35 -123 -125 -214q-161 -164 -424 -164q-128 0 -236 37q-122 42 -200 125q-96 101 -128 216q-14 52 -20 117q-4 52 -4 134v916h387v-916q0 -60 6 -103q8 -55 27 -93q46 -93 164 -93q122 0 164 91q17 37 24 92q4 40 4 106v916h387v-916z" />
    <glyph glyph-name="V" unicode="V" horiz-adv-x="1478" 
d="M937 0h-399l-506 1516h397l305 -1063h5l307 1063h399z" />
    <glyph glyph-name="W" unicode="W" horiz-adv-x="2009" 
d="M1572 0h-340l-227 981h-4l-228 -981h-350l-391 1516h393l203 -986h4l223 986h297l219 -990h4l207 990h392z" />
    <glyph glyph-name="X" unicode="X" horiz-adv-x="1554" 
d="M1093 0l-328 537l-311 -537h-432l530 807l-469 709h439l260 -433l252 433h436l-463 -717l524 -799h-438z" />
    <glyph glyph-name="Y" unicode="Y" horiz-adv-x="1325" 
d="M858 551v-551h-387v551l-453 965h420l225 -609l227 609h416z" />
    <glyph glyph-name="Z" unicode="Z" horiz-adv-x="1021" 
d="M32 0v254l522 922h-522v340h956v-314l-483 -862h483v-340h-956z" />
    <glyph glyph-name="bracketleft" unicode="[" horiz-adv-x="968" 
d="M820 -541q-224 13 -381 123q-128 91 -182 231q-45 117 -45 291v795q0 175 45 291q54 138 182 231q85 61 182 91q85 26 199 32v-356q-127 -6 -179 -81q-44 -63 -44 -194v-823q0 -131 44 -194q52 -75 179 -80v-357z" />
    <glyph glyph-name="backslash" unicode="\" horiz-adv-x="1214" 
d="M688 -205l-541 1721h377l543 -1721h-379z" />
    <glyph glyph-name="bracketright" unicode="]" horiz-adv-x="968" 
d="M755 104q0 -174 -45 -291q-54 -137 -182 -231q-85 -61 -182 -90q-85 -26 -199 -33v357q127 5 179 80q44 63 44 194v823q0 131 -44 194q-52 75 -179 81v356q224 -13 381 -123q128 -90 182 -230q45 -117 45 -292v-795z" />
    <glyph glyph-name="asciicircum" unicode="^" horiz-adv-x="1228" 
d="M772 768l-156 457h-4l-157 -457h-367l356 748h340l357 -748h-369z" />
    <glyph glyph-name="underscore" unicode="_" horiz-adv-x="1024" 
d="M0 -256v102h1024v-102h-1024z" />
    <glyph glyph-name="grave" unicode="`" horiz-adv-x="643" 
d="M143 838v430q0 102 52 171q58 77 157 77h147v-183l-51 1q-31 -1 -52 -6q-56 -14 -56 -73v-69h159v-348h-356z" />
    <glyph glyph-name="a" unicode="a" horiz-adv-x="1441" 
d="M976 0v123h-4q-43 -82 -143 -125q-86 -37 -189 -37q-257 0 -417 177q-154 172 -154 431q0 255 157 428q163 179 414 179q102 0 188 -38q96 -42 144 -122h4v121h340v-1137h-340zM895 776q-81 82 -205 82q-123 0 -203 -86q-78 -83 -78 -207q0 -119 81 -202q83 -84 202 -84
q123 0 204 83q80 83 80 207q0 125 -81 207z" />
    <glyph glyph-name="b" unicode="b" horiz-adv-x="1419" 
d="M1197 140q-160 -179 -420 -179q-97 0 -184 38q-100 44 -141 122h-4v-121h-326v1516h340v-469q121 129 330 129q119 0 239 -56q160 -74 242 -222q78 -139 78 -323q0 -263 -154 -435zM931 772q-81 86 -199 86q-120 0 -202 -83q-80 -83 -80 -204q0 -123 76 -207
q78 -85 200 -85t204 84q81 84 81 206q0 119 -80 203z" />
    <glyph glyph-name="c" unicode="c" horiz-adv-x="1335" 
d="M1271 432q-49 -208 -215 -339q-165 -130 -381 -130q-255 0 -431 177q-177 176 -177 431q0 253 173 428q174 177 427 177q221 0 388 -131q170 -132 214 -347h-344q-74 160 -254 160q-119 0 -192 -87q-70 -82 -70 -202q0 -123 73 -204q76 -84 197 -84q167 0 246 151h346z
" />
    <glyph glyph-name="d" unicode="d" horiz-adv-x="1429" 
d="M982 0v123h-4q-50 -85 -147 -125q-82 -35 -193 -35q-255 0 -415 178q-154 172 -154 430q0 254 153 426q160 179 410 179q202 0 334 -136v476h340v-1516h-324zM903 777q-82 81 -205 81q-124 0 -206 -80q-83 -81 -83 -205q0 -126 79 -208q80 -84 206 -84q127 0 209 83
q81 83 81 209q0 123 -81 204z" />
    <glyph glyph-name="e" unicode="e" horiz-adv-x="1323" 
d="M1249 465h-852q32 -215 266 -215q122 0 207 106h348q-76 -177 -218 -282q-151 -111 -337 -111q-249 0 -425 177q-177 176 -177 425q0 250 173 429q175 182 423 182q258 0 431 -182q169 -179 169 -439q0 -49 -8 -90zM917 694q-42 195 -258 195t-258 -195h516z" />
    <glyph glyph-name="f" unicode="f" horiz-adv-x="643" 
d="M475 879v-879h-340v879h-127v258h127v59q0 193 128 278q106 70 306 70h49v-256q-91 0 -117 -28q-26 -27 -26 -123h143v-258h-143z" />
    <glyph glyph-name="g" unicode="g" horiz-adv-x="1419" 
d="M1300 89q-1 -26 -1 -48q-3 -54 -8 -97q-15 -106 -59 -182q-79 -133 -252 -205q-151 -63 -323 -63q-156 0 -279 50q-139 57 -219 173q-58 84 -70 177h394q50 -113 198 -113q277 0 277 309v35h-4q-43 -79 -133 -122q-82 -40 -179 -40q-251 0 -414 175q-159 170 -159 423
q0 257 157 432q163 181 416 181q97 0 176 -33q92 -38 138 -111h4v107h340v-1048zM885 771q-78 85 -202 85q-116 0 -196 -84q-78 -82 -78 -199q0 -121 75 -205q77 -87 197 -87q123 0 201 79q78 80 78 203q0 126 -75 208z" />
    <glyph glyph-name="h" unicode="h" horiz-adv-x="1294" 
d="M835 0v618q0 107 -36 165q-45 73 -147 73q-103 0 -150 -64q-40 -55 -40 -161v-631h-340v1516h340v-484h4q42 75 126 112q72 32 167 32q202 0 309 -125q73 -84 94 -197q9 -45 11 -106q1 -24 2 -56v-692h-340z" />
    <glyph glyph-name="i" unicode="i" horiz-adv-x="585" 
d="M122 1257v259h340v-259h-340zM122 0v1137h340v-1137h-340z" />
    <glyph glyph-name="j" unicode="j" horiz-adv-x="657" 
d="M178 1257v259h340v-259h-340zM518 25q0 -243 -87 -339q-93 -104 -335 -104h-84v258h45q77 0 103 52q18 35 18 120v1125h340v-1112z" />
    <glyph glyph-name="k" unicode="k" horiz-adv-x="1210" 
d="M770 637l416 -637h-385l-322 547h-4v-547h-340v1516h340v-791h4l315 412h404z" />
    <glyph glyph-name="l" unicode="l" horiz-adv-x="585" 
d="M122 0v1516h340v-1516h-340z" />
    <glyph glyph-name="m" unicode="m" horiz-adv-x="1984" 
d="M1527 0v604q0 117 -28 173q-40 79 -146 79q-105 0 -151 -69q-38 -57 -38 -166v-621h-340v618q0 106 -31 163q-41 75 -139 75q-108 0 -155 -76q-37 -60 -37 -176v-604h-340v1137h317v-121h5q46 83 132 123q77 37 181 37q218 0 328 -203q128 203 360 203q187 0 299 -115
q86 -88 110 -204q9 -48 12 -113q1 -25 1 -60v-684h-340z" />
    <glyph glyph-name="n" unicode="n" horiz-adv-x="1294" 
d="M835 0v621q0 111 -32 165q-41 70 -146 70q-111 0 -157 -68q-38 -56 -38 -170v-618h-340v1137h317v-121h5q98 160 309 160q173 0 291 -99q74 -62 106 -167q25 -82 25 -199v-711h-340z" />
    <glyph glyph-name="o" unicode="o" horiz-adv-x="1363" 
d="M1118 137q-175 -172 -437 -172t-436 172q-176 172 -176 432q0 261 176 433q174 172 436 172t437 -172q176 -172 176 -433q0 -260 -176 -432zM877 770q-79 86 -196 86q-116 0 -195 -86q-77 -83 -77 -201q0 -117 77 -201q79 -85 195 -85q117 0 196 85q77 84 77 201
q0 118 -77 201z" />
    <glyph glyph-name="p" unicode="p" horiz-adv-x="1427" 
d="M1205 140q-159 -179 -401 -179q-212 0 -342 141v-481h-340v1516h319v-125h7q130 164 354 164q255 0 410 -186q145 -174 145 -433q0 -245 -152 -417zM936 773q-82 85 -204 85t-203 -85q-81 -83 -81 -206q0 -120 81 -204q83 -84 203 -84q121 0 203 84t82 204q0 123 -81 206
z" />
    <glyph glyph-name="q" unicode="q" horiz-adv-x="1429" 
d="M966 -379v496h-4q-58 -82 -152 -120q-83 -34 -192 -34q-241 0 -397 173q-152 167 -152 411q0 265 151 442q160 187 420 187q105 0 191 -39q97 -43 145 -125h4v125h326v-1516h-340zM897 774q-82 84 -205 84q-125 0 -205 -87q-78 -84 -78 -210q0 -118 84 -199t203 -81
q118 0 200 84t82 202q0 124 -81 207z" />
    <glyph glyph-name="r" unicode="r" horiz-adv-x="743" 
d="M728 834q-131 -4 -190 -40q-78 -48 -78 -169v-625h-340v1137h319v-121h5q81 160 284 160v-342z" />
    <glyph glyph-name="s" unicode="s" horiz-adv-x="1021" 
d="M830 59q-131 -98 -318 -98q-186 0 -311 95q-133 101 -152 282h338q15 -105 129 -105q44 0 79 22q40 25 40 67q0 53 -54 87l-50 24l-197 71q-119 43 -186 107q-85 80 -85 190q0 169 138 276q127 99 303 99q179 0 295 -89q125 -95 141 -270h-334q-3 86 -106 86
q-97 0 -97 -76q0 -57 90 -93q30 -13 91 -31q5 -1 13 -3l92 -29q61 -20 105 -42q54 -27 91 -62q90 -83 90 -219q0 -181 -145 -289z" />
    <glyph glyph-name="t" unicode="t" horiz-adv-x="718" 
d="M530 879v-879h-340v879h-168v258h168v379h340v-379h164v-258h-164z" />
    <glyph glyph-name="u" unicode="u" horiz-adv-x="1298" 
d="M853 0v121h-4q-42 -87 -122 -125q-69 -33 -173 -33q-217 0 -334 143q-64 80 -85 166q-17 65 -17 185v680h340v-629q0 -110 34 -162q42 -65 148 -65q195 0 195 231v625h340v-1137h-322z" />
    <glyph glyph-name="v" unicode="v" horiz-adv-x="1212" 
d="M767 0h-325l-408 1137h352l217 -709h4l218 709h352z" />
    <glyph glyph-name="w" unicode="w" horiz-adv-x="1740" 
d="M1378 0h-315l-191 735h-4l-190 -735h-316l-348 1137h352l170 -707h4l187 707h286l189 -707h4l170 707h350z" />
    <glyph glyph-name="x" unicode="x" horiz-adv-x="1290" 
d="M870 0l-227 352l-231 -352h-410l432 608l-383 529h408l184 -299l182 299h404l-383 -529l440 -608h-416z" />
    <glyph glyph-name="y" unicode="y" horiz-adv-x="1175" 
d="M604 -379h-360l180 436l-422 1080h362l228 -660h4l217 660h360z" />
    <glyph glyph-name="z" unicode="z" horiz-adv-x="909" 
d="M30 0v233l479 646h-479v258h846v-258l-445 -621h445v-258h-846z" />
    <glyph glyph-name="braceleft" unicode="{" horiz-adv-x="1134" 
d="M727 -541q-136 0 -222 73q-91 76 -91 210v434q0 68 -70 100q-52 25 -129 25v352q78 0 132 30q67 36 67 108v442q0 133 91 210q86 73 222 73h262v-259l-88 2q-47 0 -74 -9q-69 -22 -69 -126v-428q0 -198 -221 -215v-8q91 -5 152 -50q69 -51 69 -138v-435q0 -103 69 -125
q27 -9 74 -9l88 1v-258h-262z" />
    <glyph glyph-name="bar" unicode="|" horiz-adv-x="1136" 
d="M380 -205v1721h375v-1721h-375z" />
    <glyph glyph-name="braceright" unicode="}" horiz-adv-x="1134" 
d="M919 301q-76 0 -129 -25q-70 -32 -70 -100v-434q0 -134 -91 -210q-86 -73 -222 -73h-262v258l88 -1q47 0 74 9q69 22 69 125v435q0 87 70 138q60 45 152 50v8q-222 17 -222 215v428q0 104 -69 126q-27 9 -74 9l-88 -2v259h262q136 0 222 -73q91 -77 91 -210v-442
q0 -72 68 -108q53 -30 131 -30v-352z" />
    <glyph glyph-name="asciitilde" unicode="~" horiz-adv-x="1228" 
d="M1091 449q-8 -12 -12 -17l-39 -50q-30 -35 -57 -57q-68 -57 -152 -57q-54 0 -112 22q-23 9 -51 22l-50 26q-65 34 -105 48q-63 22 -126 22q-60 0 -107 -45q-35 -33 -69 -97l-74 320q48 86 104 130q67 52 156 52q51 0 117 -22q44 -14 117 -48l57 -25q31 -14 53 -23
q57 -21 92 -21q55 0 107 48q20 19 42 47l36 48z" />
    <glyph glyph-name="dieresis" unicode="&#xa8;" horiz-adv-x="1024" 
 />
    <glyph glyph-name="copyright" unicode="&#xa9;" horiz-adv-x="1638" 
d="M1374 202q-230 -231 -554 -231t-554 231t-230 556q0 326 231 557q231 229 557 229q322 0 551 -233q228 -231 228 -553q0 -325 -229 -556zM1257 1200q-179 186 -435 186q-259 0 -438 -185q-178 -183 -178 -443q0 -257 178 -442q180 -187 436 -187q258 0 436 186
q177 184 177 443q0 257 -176 442zM972 330q-11 22 -19 100l-5 60q-2 18 -2 27q-2 13 -3 22q-16 127 -155 127h-86v-336h-217v872h368q134 0 219 -54q101 -65 101 -192q0 -146 -142 -211q63 -26 93 -76q23 -40 31 -105q2 -23 4 -59l1 -30q1 -17 2 -30q5 -71 21 -115h-211z
M818 1053h-116v-246h112q142 0 142 133q0 113 -138 113z" />
    <glyph glyph-name="registered" unicode="&#xae;" horiz-adv-x="1638" 
d="M1374 202q-230 -231 -554 -231t-554 231t-230 556q0 326 231 557q231 229 557 229q322 0 551 -233q228 -231 228 -553q0 -325 -229 -556zM1257 1200q-179 186 -435 186q-259 0 -438 -185q-178 -183 -178 -443q0 -257 178 -442q180 -187 436 -187q258 0 436 186
q177 184 177 443q0 257 -176 442zM972 330q-11 22 -19 100l-5 60q-2 18 -2 27q-2 13 -3 22q-16 127 -155 127h-86v-336h-217v872h368q134 0 219 -54q101 -65 101 -192q0 -146 -142 -211q63 -26 93 -76q23 -40 31 -105q2 -23 4 -59l1 -30q1 -17 2 -30q5 -71 21 -115h-211z
M818 1053h-116v-246h112q142 0 142 133q0 113 -138 113z" />
    <glyph glyph-name="acute" unicode="&#xb4;" horiz-adv-x="1024" 
 />
    <glyph glyph-name="paragraph" unicode="&#xb6;" horiz-adv-x="1024" 
d="M929 1435v-70h-127v-1365h-82v1365h-166v-1365h-84v738q-174 8 -275.5 102.5t-101.5 245.5q0 157 107.5 253t285.5 96h443z" />
    <glyph glyph-name="onequarter" unicode="&#xbc;" horiz-adv-x="1298" 
 />
    <glyph glyph-name="onehalf" unicode="&#xbd;" horiz-adv-x="1320" 
 />
    <glyph glyph-name="threequarters" unicode="&#xbe;" horiz-adv-x="1288" 
 />
    <glyph glyph-name="Agrave" unicode="&#xc0;" 
d="M1114 0l-74 219h-526l-80 -219h-416l608 1516h305l603 -1516h-420zM782 1044h-6l-156 -518h318zM942 1589l-506 221l104 240l496 -262z" />
    <glyph glyph-name="Aacute" unicode="&#xc1;" 
d="M1114 0l-74 219h-526l-80 -219h-416l608 1516h305l603 -1516h-420zM782 1044h-6l-156 -518h318zM614 1589l-96 201l491 264l109 -242z" />
    <glyph glyph-name="uni1EA2" unicode="&#x1ea2;" 
d="M1114 0l-74 219h-526l-80 -219h-416l608 1516h305l603 -1516h-420zM782 1044h-6l-156 -518h318zM1022 1821q-12 -19 -29 -39q-14 -16 -34 -35l-34 -32q-20 -18 -31 -31q-31 -35 -33 -68h-174q0 46 27 90q11 17 28 36q12 14 31 33l32 31q17 18 27 31q27 34 27 65
q0 62 -58 62q-42 0 -57 -30q-12 -20 -12 -66h-183q-1 4 -1 9v9q0 110 76 181q75 68 187 68q152 0 216 -120q24 -45 24 -92q0 -55 -29 -102z" />
    <glyph glyph-name="Atilde" unicode="&#xc3;" 
d="M1114 0l-74 219h-526l-80 -219h-416l608 1516h305l603 -1516h-420zM782 1044h-6l-156 -518h318zM1192 1739q-121 -76 -232 -76q-34 0 -80 8l-169 37q-46 8 -79 8q-36 0 -75 -12l-72 -27l-123 181q57 32 108 50q62 21 117 21q38 0 84 -8q18 -3 41 -8l82 -19q23 -5 42 -8
q46 -8 83 -8q67 0 150 35z" />
    <glyph glyph-name="uni1EA0" unicode="&#x1ea0;" 
d="M1114 0l-74 219h-526l-80 -219h-416l608 1516h305l603 -1516h-420zM782 1044h-6l-156 -518h318zM613 -491v309h326v-309h-326z" />
    <glyph glyph-name="Acircumflex" unicode="&#xc2;" 
d="M1114 0l-74 219h-526l-80 -219h-416l608 1516h305l603 -1516h-420zM782 1044h-6l-156 -518h318zM872 1649l-94 118l-94 -118h-332l319 340h221l308 -340h-328z" />
    <glyph glyph-name="uni1EA6" unicode="&#x1ea6;" 
d="M1114 0l-74 219h-526l-80 -219h-416l608 1516h305l603 -1516h-420zM782 1044h-6l-156 -518h318zM1099 1950l-506 221l104 240l496 -262zM872 1649l-94 118l-94 -118h-332l319 340h221l308 -340h-328z" />
    <glyph glyph-name="uni1EA4" unicode="&#x1ea4;" 
d="M1114 0l-74 219h-526l-80 -219h-416l608 1516h305l603 -1516h-420zM782 1044h-6l-156 -518h318zM1115 1849l-96 201l491 264l109 -242zM872 1649l-94 118l-94 -118h-332l319 340h221l308 -340h-328z" />
    <glyph glyph-name="uni1EA8" unicode="&#x1ea8;" 
d="M1114 0l-74 219h-526l-80 -219h-416l608 1516h305l603 -1516h-420zM782 1044h-6l-156 -518h318zM1319 2146q-12 -19 -29 -39q-14 -16 -34 -35l-34 -32q-20 -18 -31 -31q-31 -35 -33 -68h-174q0 46 27 90q11 17 28 36q12 14 31 33l32 31q17 18 27 31q27 34 27 65
q0 62 -58 62q-42 0 -57 -30q-12 -20 -12 -66h-183q-1 4 -1 9v9q0 110 76 181q75 68 187 68q152 0 216 -120q24 -45 24 -92q0 -55 -29 -102zM872 1649l-94 118l-94 -118h-332l319 340h221l308 -340h-328z" />
    <glyph glyph-name="uni1EAA" unicode="&#x1eaa;" 
d="M1114 0l-74 219h-526l-80 -219h-416l608 1516h305l603 -1516h-420zM782 1044h-6l-156 -518h318zM1247 2119q-121 -76 -232 -76q-34 0 -80 8l-169 37q-46 8 -79 8q-36 0 -75 -12l-72 -27l-123 181q57 32 108 50q62 21 117 21q38 0 84 -8q18 -3 41 -8l82 -19q23 -5 42 -8
q46 -8 83 -8q67 0 150 35zM872 1649l-94 118l-94 -118h-332l319 340h221l308 -340h-328z" />
    <glyph glyph-name="uni1EAC" unicode="&#x1eac;" 
d="M1114 0l-74 219h-526l-80 -219h-416l608 1516h305l603 -1516h-420zM782 1044h-6l-156 -518h318zM613 -491v309h326v-309h-326zM872 1649l-94 118l-94 -118h-332l319 340h221l308 -340h-328z" />
    <glyph glyph-name="Abreve" unicode="&#x102;" 
d="M1114 0l-74 219h-526l-80 -219h-416l608 1516h305l603 -1516h-420zM782 1044h-6l-156 -518h318zM1198 1927q-10 -155 -144 -232q-111 -63 -278 -63q-170 0 -279 63q-132 77 -143 232h231q37 -45 91 -60q38 -12 110 -12q59 0 100 14q54 18 80 58h232z" />
    <glyph glyph-name="uni1EB0" unicode="&#x1eb0;" 
d="M1114 0l-74 219h-526l-80 -219h-416l608 1516h305l603 -1516h-420zM782 1044h-6l-156 -518h318zM877 1950l-506 221l104 240l496 -262zM1198 1927q-10 -155 -144 -232q-110 -63 -278 -63q-169 0 -278 63q-132 77 -144 232h232q36 -45 90 -60q39 -12 110 -12q59 0 101 14
q53 18 80 58h231z" />
    <glyph glyph-name="uni1EAE" unicode="&#x1eae;" 
d="M1114 0l-74 219h-526l-80 -219h-416l608 1516h305l603 -1516h-420zM782 1044h-6l-156 -518h318zM734 1924l-96 201l491 264l109 -242zM1198 1927q-10 -155 -144 -232q-110 -63 -278 -63q-169 0 -278 63q-132 77 -144 232h232q36 -45 90 -60q39 -12 110 -12q59 0 101 14
q53 18 80 58h231z" />
    <glyph glyph-name="uni1EB2" unicode="&#x1eb2;" 
d="M1114 0l-74 219h-526l-80 -219h-416l608 1516h305l603 -1516h-420zM782 1044h-6l-156 -518h318zM1032 2146q-12 -19 -29 -39q-14 -16 -34 -35l-34 -32q-20 -18 -31 -31q-31 -35 -33 -68h-174q0 46 27 90q11 17 28 36q12 14 31 33l32 31q17 18 27 31q27 34 27 65
q0 62 -58 62q-42 0 -57 -30q-12 -20 -12 -66h-183q-1 4 -1 9v9q0 110 76 181q75 68 187 68q152 0 216 -120q24 -45 24 -92q0 -55 -29 -102zM1198 1927q-10 -155 -144 -232q-110 -63 -278 -63q-169 0 -278 63q-132 77 -144 232h232q36 -45 90 -60q39 -12 110 -12q59 0 101 14
q53 18 80 58h231z" />
    <glyph glyph-name="uni1EB4" unicode="&#x1eb4;" 
d="M1114 0l-74 219h-526l-80 -219h-416l608 1516h305l603 -1516h-420zM782 1044h-6l-156 -518h318zM1247 2119q-121 -76 -232 -76q-34 0 -80 8l-169 37q-46 8 -79 8q-36 0 -75 -12l-72 -27l-123 181q57 32 108 50q62 21 117 21q38 0 84 -8q18 -3 41 -8l82 -19q23 -5 42 -8
q46 -8 83 -8q67 0 150 35zM1198 1927q-10 -155 -144 -232q-110 -63 -278 -63q-169 0 -278 63q-132 77 -144 232h232q36 -45 90 -60q39 -12 110 -12q59 0 101 14q53 18 80 58h231z" />
    <glyph glyph-name="uni1EB6" unicode="&#x1eb6;" 
d="M1114 0l-74 219h-526l-80 -219h-416l608 1516h305l603 -1516h-420zM782 1044h-6l-156 -518h318zM613 -491v309h326v-309h-326zM1198 1927q-10 -155 -144 -232q-110 -63 -278 -63q-169 0 -278 63q-132 77 -144 232h232q36 -45 90 -60q39 -12 110 -12q59 0 101 14
q53 18 80 58h231z" />
    <glyph glyph-name="Egrave" unicode="&#xc8;" horiz-adv-x="1081" 
d="M137 0v1516h842v-340h-471v-236h456v-340h-456v-260h471v-340h-842zM706 1589l-506 221l105 240l496 -262z" />
    <glyph glyph-name="Eacute" unicode="&#xc9;" horiz-adv-x="1081" 
d="M137 0v1516h842v-340h-471v-236h456v-340h-456v-260h471v-340h-842zM379 1589l-97 201l492 264l108 -242z" />
    <glyph glyph-name="uni1EBA" unicode="&#x1eba;" horiz-adv-x="1081" 
d="M137 0v1516h842v-340h-471v-236h456v-340h-456v-260h471v-340h-842zM799 1821q-12 -19 -29 -39q-14 -16 -34 -35l-35 -32q-19 -18 -30 -31q-31 -35 -34 -68h-174q1 46 28 90q11 17 28 36q12 14 31 33l31 31q18 18 28 31q26 34 26 65q0 62 -58 62q-41 0 -57 -30
q-11 -20 -12 -66h-183q0 4 -1 9v9q0 110 77 181q75 68 186 68q153 0 216 -120q24 -45 24 -92q0 -55 -28 -102z" />
    <glyph glyph-name="uni1EBC" unicode="&#x1ebc;" horiz-adv-x="1081" 
d="M137 0v1516h842v-340h-471v-236h456v-340h-456v-260h471v-340h-842zM968 1739q-120 -76 -231 -76q-34 0 -81 8l-169 37q-45 8 -78 8q-36 0 -75 -12l-72 -27l-123 181q57 32 108 50q62 21 117 21q38 0 84 -8q18 -3 41 -8l82 -19q23 -5 41 -8q46 -8 84 -8q67 0 149 35z" />
    <glyph glyph-name="uni1EB8" unicode="&#x1eb8;" horiz-adv-x="1081" 
d="M137 0v1516h842v-340h-471v-236h456v-340h-456v-260h471v-340h-842zM395 -491v309h326v-309h-326z" />
    <glyph glyph-name="Ecircumflex" unicode="&#xca;" horiz-adv-x="1081" 
d="M136 0v1516h842v-340h-471v-236h457v-340h-457v-260h471v-340h-842zM646 1649l-94 118l-94 -118h-332l319 340h222l307 -340h-328z" />
    <glyph glyph-name="uni1EC0" unicode="&#x1ec0;" horiz-adv-x="1081" 
d="M137 0v1516h842v-340h-471v-236h457v-340h-457v-260h471v-340h-842zM902 1960l-506 221l104 240l496 -262zM647 1649l-94 118l-94 -118h-332l319 340h222l307 -340h-328z" />
    <glyph glyph-name="uni1EBE" unicode="&#x1ebe;" horiz-adv-x="1081" 
d="M137 0v1516h842v-340h-471v-236h457v-340h-457v-260h471v-340h-842zM926 1821l-96 201l491 264l109 -242zM647 1649l-94 118l-94 -118h-332l319 340h222l307 -340h-328z" />
    <glyph glyph-name="uni1EC2" unicode="&#x1ec2;" horiz-adv-x="1081" 
d="M137 0v1516h842v-340h-471v-236h457v-340h-457v-260h471v-340h-842zM1115 2137q-11 -19 -29 -39q-13 -16 -34 -35l-34 -32q-19 -18 -31 -31q-30 -35 -33 -68h-174q1 46 28 90q11 17 27 36q12 14 32 33l31 31q17 18 27 31q27 34 27 65q0 62 -58 62q-41 0 -57 -30
q-11 -20 -12 -66h-183q-1 4 -1 9v9q0 110 77 181q74 68 186 68q152 0 216 -120q24 -45 24 -92q0 -55 -29 -102zM647 1649l-94 118l-94 -118h-332l319 340h222l307 -340h-328z" />
    <glyph glyph-name="uni1EC4" unicode="&#x1ec4;" horiz-adv-x="1081" 
d="M137 0v1516h842v-340h-471v-236h457v-340h-457v-260h471v-340h-842zM1062 2110q-121 -76 -232 -76q-34 0 -80 8l-169 37q-46 8 -78 8q-37 0 -76 -12l-72 -27l-123 181q57 32 108 50q62 21 118 21q37 0 83 -8q19 -3 41 -8l83 -19q22 -5 41 -8q46 -8 83 -8q68 0 150 35z
M647 1649l-94 118l-94 -118h-332l319 340h222l307 -340h-328z" />
    <glyph glyph-name="uni1EC6" unicode="&#x1ec6;" horiz-adv-x="1081" 
d="M137 0v1516h842v-340h-471v-236h457v-340h-457v-260h471v-340h-842zM396 -491v309h325v-309h-325zM647 1649l-94 118l-94 -118h-332l319 340h222l307 -340h-328z" />
    <glyph glyph-name="Igrave" unicode="&#xcc;" horiz-adv-x="661" 
d="M138 0v1516h387v-1516h-387zM445 1589l-506 221l104 240l496 -262z" />
    <glyph glyph-name="Iacute" unicode="&#xcd;" horiz-adv-x="661" 
d="M136 0v1516h387v-1516h-387zM218 1589l-96 201l492 264l108 -242z" />
    <glyph glyph-name="uni1EC8" unicode="&#x1ec8;" horiz-adv-x="661" 
d="M138 0v1516h387v-1516h-387zM576 1821q-12 -19 -30 -39q-13 -16 -34 -35l-34 -32q-19 -18 -31 -31q-30 -35 -33 -68h-174q1 46 28 90q11 17 27 36q12 14 32 33l31 31q17 18 27 31q27 34 27 65q0 62 -58 62q-41 0 -57 -30q-11 -20 -12 -66h-183q-1 4 -1 9v9q0 110 77 181
q74 68 186 68q152 0 216 -120q24 -45 24 -92q0 -55 -28 -102z" />
    <glyph glyph-name="Itilde" unicode="&#x128;" horiz-adv-x="661" 
d="M137 0v1516h387v-1516h-387zM764 1739q-120 -76 -231 -76q-34 0 -81 8l-168 37q-46 8 -79 8q-36 0 -75 -12l-72 -27l-123 181q57 32 108 50q62 21 117 21q38 0 84 -8q18 -3 41 -8l82 -19q23 -5 42 -8q46 -8 83 -8q67 0 150 35z" />
    <glyph glyph-name="uni1ECA" unicode="&#x1eca;" horiz-adv-x="661" 
d="M137 0v1516h387v-1516h-387zM168 -491v309h325v-309h-325z" />
    <glyph glyph-name="Ograve" unicode="&#xd2;" horiz-adv-x="1742" 
d="M1436 196q-233 -225 -568 -225q-326 0 -559 221q-238 224 -238 547q0 172 59 324q31 81 99 170q236 311 641 311q334 0 566 -226q234 -227 234 -560q0 -334 -234 -562zM1171 1068q-119 136 -299 136q-182 0 -300 -132q-114 -127 -114 -310q0 -187 115 -316
q119 -135 303 -135q177 0 295 136q112 129 112 309q0 183 -112 312zM1036 1589l-506 221l104 240l496 -262z" />
    <glyph glyph-name="Oacute" unicode="&#xd3;" horiz-adv-x="1742" 
d="M1436 196q-233 -225 -568 -225q-326 0 -559 221q-238 224 -238 547q0 172 59 324q31 81 99 170q236 311 641 311q334 0 566 -226q234 -227 234 -560q0 -334 -234 -562zM1171 1068q-119 136 -299 136q-182 0 -300 -132q-114 -127 -114 -310q0 -187 115 -316
q119 -135 303 -135q177 0 295 136q112 129 112 309q0 183 -112 312zM708 1589l-96 201l491 264l109 -242z" />
    <glyph glyph-name="uni1ECE" unicode="&#x1ece;" horiz-adv-x="1742" 
d="M1436 196q-233 -225 -568 -225q-326 0 -559 221q-238 224 -238 547q0 172 59 324q31 81 99 170q236 311 641 311q334 0 566 -226q234 -227 234 -560q0 -334 -234 -562zM1171 1068q-119 136 -299 136q-182 0 -300 -132q-114 -127 -114 -310q0 -187 115 -316
q119 -135 303 -135q177 0 295 136q112 129 112 309q0 183 -112 312zM1094 1821q-12 -19 -30 -39q-13 -16 -33 -35l-35 -32q-19 -18 -30 -31q-31 -35 -34 -68h-174q1 46 28 90q11 17 28 36q12 14 31 33l31 31q17 18 28 31q26 34 26 65q0 62 -58 62q-41 0 -57 -30
q-11 -20 -12 -66h-183q0 4 -1 9v9q0 110 77 181q75 68 186 68q153 0 216 -120q24 -45 24 -92q0 -55 -28 -102z" />
    <glyph glyph-name="Otilde" unicode="&#xd5;" horiz-adv-x="1742" 
d="M1436 196q-233 -225 -568 -225q-326 0 -559 221q-238 224 -238 547q0 172 59 324q31 81 99 170q236 311 641 311q334 0 566 -226q234 -227 234 -560q0 -334 -234 -562zM1171 1068q-119 136 -299 136q-182 0 -300 -132q-114 -127 -114 -310q0 -187 115 -316
q119 -135 303 -135q177 0 295 136q112 129 112 309q0 183 -112 312zM1285 1739q-120 -76 -231 -76q-34 0 -81 8l-168 37q-46 8 -79 8q-36 0 -75 -12l-72 -27l-123 181q57 32 108 50q62 21 117 21q38 0 84 -8q18 -3 41 -8l82 -19q23 -5 42 -8q46 -8 83 -8q67 0 150 35z" />
    <glyph glyph-name="uni1ECC" unicode="&#x1ecc;" horiz-adv-x="1742" 
d="M1436 196q-233 -225 -568 -225q-326 0 -559 221q-238 224 -238 547q0 172 59 324q31 81 99 170q236 311 641 311q334 0 566 -226q234 -227 234 -560q0 -334 -234 -562zM1171 1068q-119 136 -299 136q-182 0 -300 -132q-114 -127 -114 -310q0 -187 115 -316
q119 -135 303 -135q177 0 295 136q112 129 112 309q0 183 -112 312zM708 -491v309h326v-309h-326z" />
    <glyph glyph-name="Ocircumflex" unicode="&#xd4;" horiz-adv-x="1742" 
d="M1436 196q-233 -225 -568 -225q-326 0 -559 221q-238 224 -238 547q0 172 59 324q31 81 99 170q236 311 641 311q334 0 566 -226q234 -227 234 -560q0 -334 -234 -562zM1171 1068q-119 136 -299 136q-182 0 -300 -132q-114 -127 -114 -310q0 -187 115 -316
q119 -135 303 -135q177 0 295 136q112 129 112 309q0 183 -112 312zM966 1649l-94 118l-94 -118h-332l319 340h221l308 -340h-328z" />
    <glyph glyph-name="uni1ED2" unicode="&#x1ed2;" horiz-adv-x="1742" 
d="M1436 196q-233 -225 -568 -225q-326 0 -559 221q-238 224 -238 547q0 172 59 324q31 81 99 170q236 311 641 311q334 0 566 -226q234 -227 234 -560q0 -334 -234 -562zM1171 1068q-119 136 -299 136q-182 0 -300 -132q-114 -127 -114 -310q0 -187 115 -316
q119 -135 303 -135q177 0 295 136q112 129 112 309q0 183 -112 312zM1222 1960l-506 221l104 240l496 -262zM966 1649l-94 118l-94 -118h-332l319 340h221l308 -340h-328z" />
    <glyph glyph-name="uni1ED0" unicode="&#x1ed0;" horiz-adv-x="1742" 
d="M1436 196q-233 -225 -568 -225q-326 0 -559 221q-238 224 -238 547q0 172 59 324q31 81 99 170q236 311 641 311q334 0 566 -226q234 -227 234 -560q0 -334 -234 -562zM1171 1068q-119 136 -299 136q-182 0 -300 -132q-114 -127 -114 -310q0 -187 115 -316
q119 -135 303 -135q177 0 295 136q112 129 112 309q0 183 -112 312zM1227 1821l-96 201l491 264l109 -242zM966 1649l-94 118l-94 -118h-332l319 340h221l308 -340h-328z" />
    <glyph glyph-name="uni1ED4" unicode="&#x1ed4;" horiz-adv-x="1742" 
d="M1436 196q-233 -225 -568 -225q-326 0 -559 221q-238 224 -238 547q0 172 59 324q31 81 99 170q236 311 641 311q334 0 566 -226q234 -227 234 -560q0 -334 -234 -562zM1171 1068q-119 136 -299 136q-182 0 -300 -132q-114 -127 -114 -310q0 -187 115 -316
q119 -135 303 -135q177 0 295 136q112 129 112 309q0 183 -112 312zM1445 2145q-12 -19 -30 -39q-13 -16 -33 -35l-35 -32q-19 -18 -30 -31q-31 -35 -34 -68h-174q1 46 28 90q11 17 28 36q12 14 31 33l31 31q17 18 28 31q26 34 26 65q0 62 -58 62q-41 0 -57 -30
q-11 -20 -12 -66h-183q0 4 -1 9v9q0 110 77 181q75 68 186 68q153 0 216 -120q24 -45 24 -92q0 -55 -28 -102zM966 1649l-94 118l-94 -118h-332l319 340h221l308 -340h-328z" />
    <glyph glyph-name="uni1ED6" unicode="&#x1ed6;" horiz-adv-x="1742" 
d="M1436 196q-233 -225 -568 -225q-326 0 -559 221q-238 224 -238 547q0 172 59 324q31 81 99 170q236 311 641 311q334 0 566 -226q234 -227 234 -560q0 -334 -234 -562zM1171 1068q-119 136 -299 136q-182 0 -300 -132q-114 -127 -114 -310q0 -187 115 -316
q119 -135 303 -135q177 0 295 136q112 129 112 309q0 183 -112 312zM1387 2091q-120 -76 -231 -76q-34 0 -81 8l-168 37q-46 8 -79 8q-36 0 -75 -12l-72 -27l-123 181q57 32 108 50q62 21 117 21q38 0 84 -8q18 -3 41 -8l82 -19q23 -5 42 -8q46 -8 83 -8q67 0 150 35z
M966 1649l-94 118l-94 -118h-332l319 340h221l308 -340h-328z" />
    <glyph glyph-name="uni1ED8" unicode="&#x1ed8;" horiz-adv-x="1742" 
d="M1436 196q-233 -225 -568 -225q-326 0 -559 221q-238 224 -238 547q0 172 59 324q31 81 99 170q236 311 641 311q334 0 566 -226q234 -227 234 -560q0 -334 -234 -562zM1171 1068q-119 136 -299 136q-182 0 -300 -132q-114 -127 -114 -310q0 -187 115 -316
q119 -135 303 -135q177 0 295 136q112 129 112 309q0 183 -112 312zM708 -491v309h326v-309h-326zM966 1649l-94 118l-94 -118h-332l319 340h221l308 -340h-328z" />
    <glyph glyph-name="Ugrave" unicode="&#xd9;" horiz-adv-x="1429" 
d="M1296 600q0 -155 -26 -251q-35 -123 -125 -214q-161 -164 -424 -164q-128 0 -236 37q-122 42 -200 125q-96 101 -128 216q-14 52 -20 117q-4 52 -4 134v916h387v-916q0 -60 6 -103q8 -55 27 -93q46 -93 164 -93q122 0 164 91q17 37 24 92q4 40 4 106v916h387v-916z
M809 1589l-506 221l104 240l496 -262z" />
    <glyph glyph-name="Uacute" unicode="&#xda;" horiz-adv-x="1429" 
d="M1296 600q0 -155 -26 -251q-35 -123 -125 -214q-161 -164 -424 -164q-128 0 -236 37q-122 42 -200 125q-96 101 -128 216q-14 52 -20 117q-4 52 -4 134v916h387v-916q0 -60 6 -103q8 -55 27 -93q46 -93 164 -93q122 0 164 91q17 37 24 92q4 40 4 106v916h387v-916z
M625 1589l-97 201l492 264l108 -242z" />
    <glyph glyph-name="uni1EE6" unicode="&#x1ee6;" horiz-adv-x="1429" 
d="M1296 600q0 -155 -26 -251q-35 -123 -125 -214q-161 -164 -424 -164q-128 0 -236 37q-122 42 -200 125q-96 101 -128 216q-14 52 -20 117q-4 52 -4 134v916h387v-916q0 -60 6 -103q8 -55 27 -93q46 -93 164 -93q122 0 164 91q17 37 24 92q4 40 4 106v916h387v-916z
M956 1821q-11 -19 -29 -39q-13 -16 -34 -35l-34 -32q-19 -18 -31 -31q-30 -35 -33 -68h-174q0 46 28 90q11 17 27 36q12 14 32 33l31 31q17 18 27 31q27 34 27 65q0 62 -58 62q-41 0 -57 -30q-11 -20 -12 -66h-183q-1 4 -1 9v9q0 110 77 181q74 68 186 68q152 0 216 -120
q24 -45 24 -92q0 -55 -29 -102z" />
    <glyph glyph-name="Utilde" unicode="&#x168;" horiz-adv-x="1429" 
d="M1296 600q0 -155 -26 -251q-35 -123 -125 -214q-161 -164 -424 -164q-128 0 -236 37q-122 42 -200 125q-96 101 -128 216q-14 52 -20 117q-4 52 -4 134v916h387v-916q0 -60 6 -103q8 -55 27 -93q46 -93 164 -93q122 0 164 91q17 37 24 92q4 40 4 106v916h387v-916z
M1110 1739q-121 -76 -231 -76q-35 0 -81 8l-169 37q-45 8 -78 8q-37 0 -75 -12l-73 -27l-122 181q57 32 108 50q61 21 117 21q37 0 83 -8q19 -3 42 -8l82 -19q23 -5 41 -8q46 -8 84 -8q67 0 149 35z" />
    <glyph glyph-name="uni1EE4" unicode="&#x1ee4;" horiz-adv-x="1429" 
d="M1296 600q0 -155 -26 -251q-35 -123 -125 -214q-161 -164 -424 -164q-128 0 -236 37q-122 42 -200 125q-96 101 -128 216q-14 52 -20 117q-4 52 -4 134v916h387v-916q0 -60 6 -103q8 -55 27 -93q46 -93 164 -93q122 0 164 91q17 37 24 92q4 40 4 106v916h387v-916z
M552 -491v309h325v-309h-325z" />
    <glyph glyph-name="Uhorn" unicode="&#x1af;" horiz-adv-x="1429" 
d="M1296 600q0 -155 -26 -251q-35 -123 -125 -214q-161 -164 -424 -164q-128 0 -236 37q-122 42 -200 125q-96 101 -128 216q-14 52 -20 117q-4 52 -4 134v916h387v-916q0 -60 6 -103q8 -55 27 -93q46 -93 164 -93q122 0 164 91q17 37 24 92q4 40 4 106v916h387v-916z
M1257 1768h229v-235q-14 -145 -95.5 -216t-184.5 -83l-99 -8l7 144l39 -1q24 1 80 22q104 51 104 149h-80v228z" />
    <glyph glyph-name="uni1EEA" unicode="&#x1eea;" horiz-adv-x="1429" 
d="M809 1589l-506 221l105 240l495 -262zM1296 1257v-657q0 -155 -26 -251q-35 -123 -125 -214q-161 -164 -424 -164q-127 0 -236 37q-122 42 -200 125q-96 101 -128 216q-14 52 -19 117q-5 52 -5 134v916h387v-916q0 -60 6 -103q8 -55 27 -93q46 -93 164 -93q122 0 164 91
q18 37 24 92q4 40 4 106v916h387v-81q41 43 41 105h-80v228h229v-235q-14 -145 -95 -216q-45 -38 -95 -60z" />
    <glyph glyph-name="uni1EE8" unicode="&#x1ee8;" horiz-adv-x="1429" 
d="M625 1589l-97 201l492 264l108 -242zM1296 1257v-657q0 -155 -26 -251q-35 -123 -125 -214q-161 -164 -424 -164q-127 0 -236 37q-122 42 -200 125q-96 101 -128 216q-14 52 -19 117q-5 52 -5 134v916h387v-916q0 -60 6 -103q8 -55 27 -93q46 -93 164 -93q122 0 164 91
q18 37 24 92q4 40 4 106v916h387v-81q41 43 41 105h-80v228h229v-235q-14 -145 -95 -216q-45 -38 -95 -60z" />
    <glyph glyph-name="uni1EEC" unicode="&#x1eec;" horiz-adv-x="1429" 
d="M957 1821q-12 -19 -30 -39q-13 -16 -34 -35l-34 -32q-19 -18 -31 -31q-30 -35 -33 -68h-174q1 46 28 90q11 17 27 36q12 14 32 33l31 31q17 18 27 31q27 34 27 65q0 62 -58 62q-41 0 -57 -30q-11 -20 -12 -66h-183q-1 4 -1 9v9q0 110 77 181q74 68 186 68q152 0 216 -120
q24 -45 24 -92q0 -55 -28 -102zM1296 1257v-657q0 -155 -26 -251q-35 -123 -125 -214q-161 -164 -424 -164q-127 0 -236 37q-122 42 -200 125q-96 101 -128 216q-14 52 -19 117q-5 52 -5 134v916h387v-916q0 -60 6 -103q8 -55 27 -93q46 -93 164 -93q122 0 164 91
q18 37 24 92q4 40 4 106v916h387v-81q41 43 41 105h-80v228h229v-235q-14 -145 -95 -216q-45 -38 -95 -60z" />
    <glyph glyph-name="uni1EEE" unicode="&#x1eee;" horiz-adv-x="1429" 
d="M1110 1739q-120 -76 -231 -76q-34 0 -81 8l-169 37q-45 8 -78 8q-37 0 -75 -12l-72 -27l-123 181q57 32 108 50q61 21 117 21q38 0 84 -8q18 -3 41 -8l82 -19q23 -5 41 -8q46 -8 84 -8q67 0 149 35zM1296 1257v-657q0 -155 -26 -251q-35 -123 -125 -214
q-161 -164 -424 -164q-127 0 -236 37q-122 42 -200 125q-96 101 -128 216q-14 52 -19 117q-5 52 -5 134v916h387v-916q0 -60 6 -103q8 -55 27 -93q46 -93 164 -93q122 0 164 91q18 37 24 92q4 40 4 106v916h387v-81q41 43 41 105h-80v228h229v-235q-14 -145 -95 -216
q-45 -38 -95 -60z" />
    <glyph glyph-name="uni1EF0" unicode="&#x1ef0;" horiz-adv-x="1429" 
d="M552 -491v309h326v-309h-326zM1296 1257v-657q0 -155 -26 -251q-35 -123 -125 -214q-161 -164 -424 -164q-127 0 -236 37q-122 42 -200 125q-96 101 -128 216q-14 52 -19 117q-5 52 -5 134v916h387v-916q0 -60 6 -103q8 -55 27 -93q46 -93 164 -93q122 0 164 91
q18 37 24 92q4 40 4 106v916h387v-81q41 43 41 105h-80v228h229v-235q-14 -145 -95 -216q-45 -38 -95 -60z" />
    <glyph glyph-name="Ohorn" unicode="&#x1a0;" horiz-adv-x="1742" 
d="M1170 1068q-118 136 -299 136t-299 -132q-114 -127 -114 -310q0 -187 114 -316q119 -135 304 -135q177 0 295 136q112 129 112 309q0 183 -113 312zM1478 1274q192 -215 192 -516q0 -334 -235 -562q-232 -225 -568 -225q-325 0 -558 221q-238 224 -238 547q0 172 59 324
q31 81 98 170q237 311 641 311q282 0 492 -161q10 4 21 8q104 51 104 149h-80v228h229v-235q-14 -145 -95 -216q-30 -25 -62 -43z" />
    <glyph glyph-name="uni1EDC" unicode="&#x1edc;" horiz-adv-x="1742" 
d="M1170 1068q-118 136 -299 136t-299 -132q-114 -127 -114 -310q0 -187 114 -316q119 -135 304 -135q177 0 295 136q112 129 112 309q0 183 -113 312zM1035 1589l-506 221l105 240l495 -262zM1478 1274q192 -215 192 -516q0 -334 -235 -562q-232 -225 -568 -225
q-325 0 -558 221q-238 224 -238 547q0 172 59 324q31 81 98 170q237 311 641 311q282 0 492 -161q10 4 21 8q104 51 104 149h-80v228h229v-235q-14 -145 -95 -216q-30 -25 -62 -43z" />
    <glyph glyph-name="uni1EDA" unicode="&#x1eda;" horiz-adv-x="1742" 
d="M1170 1068q-118 136 -299 136t-299 -132q-114 -127 -114 -310q0 -187 114 -316q119 -135 304 -135q177 0 295 136q112 129 112 309q0 183 -113 312zM708 1589l-97 201l492 264l108 -242zM1478 1274q192 -215 192 -516q0 -334 -235 -562q-232 -225 -568 -225
q-325 0 -558 221q-238 224 -238 547q0 172 59 324q31 81 98 170q237 311 641 311q282 0 492 -161q10 4 21 8q104 51 104 149h-80v228h229v-235q-14 -145 -95 -216q-30 -25 -62 -43z" />
    <glyph glyph-name="uni1EDE" unicode="&#x1ede;" horiz-adv-x="1742" 
d="M1170 1068q-118 136 -299 136t-299 -132q-114 -127 -114 -310q0 -187 114 -316q119 -135 304 -135q177 0 295 136q112 129 112 309q0 183 -113 312zM1094 1821q-12 -19 -30 -39q-13 -16 -34 -35l-34 -32q-19 -18 -31 -31q-30 -35 -33 -68h-174q1 46 28 90q11 17 27 36
q12 14 32 33l31 31q17 18 27 31q27 34 27 65q0 62 -58 62q-41 0 -57 -30q-11 -20 -12 -66h-183q-1 4 -1 9v9q0 110 77 181q74 68 186 68q152 0 216 -120q24 -45 24 -92q0 -55 -28 -102zM1478 1274q192 -215 192 -516q0 -334 -235 -562q-232 -225 -568 -225q-325 0 -558 221
q-238 224 -238 547q0 172 59 324q31 81 98 170q237 311 641 311q282 0 492 -161q10 4 21 8q104 51 104 149h-80v228h229v-235q-14 -145 -95 -216q-30 -25 -62 -43z" />
    <glyph glyph-name="uni1EE0" unicode="&#x1ee0;" horiz-adv-x="1742" 
d="M1436 196q-233 -225 -568 -225q-326 0 -559 221q-238 224 -238 547q0 172 59 324q31 81 99 170q236 311 641 311q334 0 566 -226q234 -227 234 -560q0 -334 -234 -562zM1171 1068q-119 136 -299 136q-182 0 -300 -132q-114 -127 -114 -310q0 -187 115 -316
q119 -135 303 -135q177 0 295 136q112 129 112 309q0 183 -112 312zM1285 1739q-120 -76 -231 -76q-34 0 -81 8l-168 37q-46 8 -79 8q-36 0 -75 -12l-72 -27l-123 181q57 32 108 50q62 21 117 21q38 0 84 -8q18 -3 41 -8l82 -19q23 -5 42 -8q46 -8 83 -8q67 0 150 35z
M1406 1768h229v-235q-14 -145 -95.5 -216t-184.5 -83l-99 -8l7 144l39 -1q24 1 80 22q104 51 104 149h-80v228z" />
    <glyph glyph-name="uni1EE2" unicode="&#x1ee2;" horiz-adv-x="1742" 
d="M1170 1068q-118 136 -299 136t-299 -132q-114 -127 -114 -310q0 -187 114 -316q119 -135 304 -135q177 0 295 136q112 129 112 309q0 183 -113 312zM708 -491v309h325v-309h-325zM1478 1274q192 -215 192 -516q0 -334 -235 -562q-232 -225 -568 -225q-325 0 -558 221
q-238 224 -238 547q0 172 59 324q31 81 98 170q237 311 641 311q282 0 492 -161q10 4 21 8q104 51 104 149h-80v228h229v-235q-14 -145 -95 -216q-30 -25 -62 -43z" />
    <glyph glyph-name="Ygrave" unicode="&#x1ef2;" horiz-adv-x="1325" 
d="M858 551v-551h-387v551l-453 965h420l225 -609l227 609h416zM809 1589l-506 221l104 240l496 -262z" />
    <glyph glyph-name="Yacute" unicode="&#xdd;" horiz-adv-x="1325" 
d="M858 551v-551h-387v551l-453 965h420l225 -609l227 609h416zM624 1589l-96 201l491 264l109 -242z" />
    <glyph glyph-name="uni1EF6" unicode="&#x1ef6;" horiz-adv-x="1325" 
d="M858 551v-551h-387v551l-453 965h420l225 -609l227 609h416zM909 1821q-12 -19 -29 -39q-14 -16 -34 -35l-34 -32q-20 -18 -31 -31q-31 -35 -34 -68h-174q1 46 28 90q11 17 28 36q12 14 31 33l32 31q17 18 27 31q26 34 26 65q0 62 -58 62q-41 0 -57 -30q-11 -20 -12 -66
h-183v9l-1 9q0 110 77 181q75 68 186 68q153 0 216 -120q24 -45 24 -92q0 -55 -28 -102z" />
    <glyph glyph-name="uni1EF8" unicode="&#x1ef8;" horiz-adv-x="1325" 
d="M858 551v-551h-387v551l-453 965h420l225 -609l227 609h416zM1110 1739q-121 -76 -232 -76q-34 0 -80 8l-169 37q-46 8 -78 8q-37 0 -76 -12l-72 -27l-123 181q57 32 108 50q62 21 118 21q37 0 83 -8q18 -3 41 -8l83 -19q22 -5 41 -8q46 -8 83 -8q68 0 150 35z" />
    <glyph glyph-name="uni1EF4" unicode="&#x1ef4;" horiz-adv-x="1325" 
d="M858 551v-551h-387v551l-453 965h420l225 -609l227 609h416zM504 -491v309h326v-309h-326z" />
    <glyph glyph-name="agrave" unicode="&#xe0;" horiz-adv-x="1441" 
d="M976 0v123h-4q-43 -82 -143 -125q-86 -37 -189 -37q-257 0 -417 177q-154 172 -154 431q0 255 157 428q163 179 414 179q102 0 188 -38q96 -42 144 -122h4v121h340v-1137h-340zM895 776q-81 82 -205 82q-123 0 -203 -86q-78 -83 -78 -207q0 -119 81 -202q83 -84 202 -84
q123 0 204 83q80 83 80 207q0 125 -81 207zM886 1257l-506 222l105 239l495 -262z" />
    <glyph glyph-name="aacute" unicode="&#xe1;" horiz-adv-x="1441" 
d="M976 0v123h-4q-43 -82 -143 -125q-86 -37 -189 -37q-257 0 -417 177q-154 172 -154 431q0 255 157 428q163 179 414 179q102 0 188 -38q96 -42 144 -122h4v121h340v-1137h-340zM895 776q-81 82 -205 82q-123 0 -203 -86q-78 -83 -78 -207q0 -119 81 -202q83 -84 202 -84
q123 0 204 83q80 83 80 207q0 125 -81 207zM558 1272l-96 201l492 264l108 -242z" />
    <glyph glyph-name="uni1EA3" unicode="&#x1ea3;" horiz-adv-x="1441" 
d="M976 0v123h-4q-43 -82 -143 -125q-86 -37 -189 -37q-257 0 -417 177q-154 172 -154 431q0 255 157 428q163 179 414 179q102 0 188 -38q96 -42 144 -122h4v121h340v-1137h-340zM895 776q-81 82 -205 82q-123 0 -203 -86q-78 -83 -78 -207q0 -119 81 -202q83 -84 202 -84
q123 0 204 83q80 83 80 207q0 125 -81 207zM928 1487q-12 -19 -29 -39q-14 -16 -34 -35l-35 -32q-19 -18 -30 -31q-31 -35 -34 -68h-174q1 46 28 90q11 17 28 36q12 14 31 33l31 31q17 18 28 31q26 34 26 65q0 62 -58 62q-41 0 -57 -30q-11 -20 -12 -66h-183q0 4 -1 9v9
q0 110 77 181q75 68 186 68q153 0 216 -120q24 -45 24 -92q0 -55 -28 -102z" />
    <glyph glyph-name="atilde" unicode="&#xe3;" horiz-adv-x="1441" 
d="M976 0v123h-4q-43 -82 -143 -125q-86 -37 -189 -37q-257 0 -417 177q-154 172 -154 431q0 255 157 428q163 179 414 179q102 0 188 -38q96 -42 144 -122h4v121h340v-1137h-340zM895 776q-81 82 -205 82q-123 0 -203 -86q-78 -83 -78 -207q0 -119 81 -202q83 -84 202 -84
q123 0 204 83q80 83 80 207q0 125 -81 207zM1136 1409q-121 -76 -231 -76q-35 0 -81 9l-169 36q-45 8 -78 8q-37 0 -75 -11l-73 -27l-122 180q57 33 108 50q61 21 117 21q37 0 83 -8q19 -3 42 -8l82 -19q23 -5 41 -8q46 -8 84 -8q67 0 149 35z" />
    <glyph glyph-name="uni1EA1" unicode="&#x1ea1;" horiz-adv-x="1441" 
d="M976 0v123h-4q-43 -82 -143 -125q-86 -37 -189 -37q-257 0 -417 177q-154 172 -154 431q0 255 157 428q163 179 414 179q102 0 188 -38q96 -42 144 -122h4v121h340v-1137h-340zM895 776q-81 82 -205 82q-123 0 -203 -86q-78 -83 -78 -207q0 -119 81 -202q83 -84 202 -84
q123 0 204 83q80 83 80 207q0 125 -81 207zM588 -491v309h326v-309h-326z" />
    <glyph glyph-name="acircumflex" unicode="&#xe2;" horiz-adv-x="1441" 
d="M976 0v123h-4q-43 -82 -143 -125q-86 -37 -189 -37q-257 0 -417 177q-154 172 -154 431q0 255 157 428q163 179 414 179q102 0 188 -38q96 -42 144 -122h4v121h340v-1137h-340zM895 776q-81 82 -205 82q-123 0 -203 -86q-78 -83 -78 -207q0 -119 81 -202q83 -84 202 -84
q123 0 204 83q80 83 80 207q0 125 -81 207zM817 1311l-95 119l-94 -119h-332l320 340h221l307 -340h-327z" />
    <glyph glyph-name="uni1EA7" unicode="&#x1ea7;" horiz-adv-x="1441" 
d="M976 0v123h-4q-43 -82 -143 -125q-86 -37 -189 -37q-257 0 -417 177q-154 172 -154 431q0 255 157 428q163 179 414 179q102 0 188 -38q96 -42 144 -122h4v121h340v-1137h-340zM895 776q-81 82 -205 82q-123 0 -203 -86q-78 -83 -78 -207q0 -119 81 -202q83 -84 202 -84
q123 0 204 83q80 83 80 207q0 125 -81 207zM1132 1620l-506 222l105 239l495 -262zM817 1311l-95 119l-94 -119h-332l320 340h221l307 -340h-327z" />
    <glyph glyph-name="uni1EA5" unicode="&#x1ea5;" horiz-adv-x="1441" 
d="M976 0v123h-4q-43 -82 -143 -125q-86 -37 -189 -37q-257 0 -417 177q-154 172 -154 431q0 255 157 428q163 179 414 179q102 0 188 -38q96 -42 144 -122h4v121h340v-1137h-340zM895 776q-81 82 -205 82q-123 0 -203 -86q-78 -83 -78 -207q0 -119 81 -202q83 -84 202 -84
q123 0 204 83q80 83 80 207q0 125 -81 207zM1134 1461l-96 201l492 264l108 -242zM817 1311l-95 119l-94 -119h-332l320 340h221l307 -340h-327z" />
    <glyph glyph-name="uni1EA9" unicode="&#x1ea9;" horiz-adv-x="1441" 
d="M976 0v123h-4q-43 -82 -143 -125q-86 -37 -189 -37q-257 0 -417 177q-154 172 -154 431q0 255 157 428q163 179 414 179q102 0 188 -38q96 -42 144 -122h4v121h340v-1137h-340zM895 776q-81 82 -205 82q-123 0 -203 -86q-78 -83 -78 -207q0 -119 81 -202q83 -84 202 -84
q123 0 204 83q80 83 80 207q0 125 -81 207zM1401 1715q-12 -19 -29 -39q-14 -16 -34 -35l-35 -32q-19 -18 -30 -31q-31 -35 -34 -68h-174q1 46 28 90q11 17 28 36q12 14 31 33l31 31q17 18 28 31q26 34 26 65q0 62 -58 62q-41 0 -57 -30q-11 -20 -12 -66h-183q0 4 -1 9v9
q0 110 77 181q75 68 186 68q153 0 216 -120q24 -45 24 -92q0 -55 -28 -102zM817 1311l-95 119l-94 -119h-332l320 340h221l307 -340h-327z" />
    <glyph glyph-name="uni1EAB" unicode="&#x1eab;" horiz-adv-x="1441" 
d="M976 0v123h-4q-43 -82 -143 -125q-86 -37 -189 -37q-257 0 -417 177q-154 172 -154 431q0 255 157 428q163 179 414 179q102 0 188 -38q96 -42 144 -122h4v121h340v-1137h-340zM895 776q-81 82 -205 82q-123 0 -203 -86q-78 -83 -78 -207q0 -119 81 -202q83 -84 202 -84
q123 0 204 83q80 83 80 207q0 125 -81 207zM1252 1786q-121 -76 -231 -76q-35 0 -81 9l-169 36q-45 8 -78 8q-37 0 -75 -11l-73 -27l-122 180q57 33 108 50q61 21 117 21q37 0 83 -8q19 -3 42 -8l82 -19q23 -5 41 -8q46 -8 84 -8q67 0 149 35zM817 1311l-95 119l-94 -119
h-332l320 340h221l307 -340h-327z" />
    <glyph glyph-name="uni1EAD" unicode="&#x1ead;" horiz-adv-x="1441" 
d="M976 0v123h-4q-43 -82 -143 -125q-86 -37 -189 -37q-257 0 -417 177q-154 172 -154 431q0 255 157 428q163 179 414 179q102 0 188 -38q96 -42 144 -122h4v121h340v-1137h-340zM895 776q-81 82 -205 82q-123 0 -203 -86q-78 -83 -78 -207q0 -119 81 -202q83 -84 202 -84
q123 0 204 83q80 83 80 207q0 125 -81 207zM588 -491v309h326v-309h-326zM817 1311l-95 119l-94 -119h-332l320 340h221l307 -340h-327z" />
    <glyph glyph-name="abreve" unicode="&#x103;" horiz-adv-x="1441" 
d="M976 0v123h-4q-43 -82 -143 -125q-86 -37 -189 -37q-257 0 -417 177q-154 172 -154 431q0 255 157 428q163 179 414 179q102 0 188 -38q96 -42 144 -122h4v121h340v-1137h-340zM895 776q-81 82 -205 82q-123 0 -203 -86q-78 -83 -78 -207q0 -119 81 -202q83 -84 202 -84
q123 0 204 83q80 83 80 207q0 125 -81 207zM1198 1594q-10 -155 -144 -232q-110 -63 -278 -63q-169 0 -278 63q-132 77 -144 232h232q36 -45 90 -60q39 -12 110 -12q59 0 101 14q53 18 80 58h231z" />
    <glyph glyph-name="uni1EB1" unicode="&#x1eb1;" horiz-adv-x="1441" 
d="M976 0v123h-4q-43 -82 -143 -125q-86 -37 -189 -37q-257 0 -417 177q-154 172 -154 431q0 255 157 428q163 179 414 179q102 0 188 -38q96 -42 144 -122h4v121h340v-1137h-340zM895 776q-81 82 -205 82q-123 0 -203 -86q-78 -83 -78 -207q0 -119 81 -202q83 -84 202 -84
q123 0 204 83q80 83 80 207q0 125 -81 207zM848 1581l-506 222l105 239l495 -262zM1198 1594q-10 -155 -144 -232q-110 -63 -278 -63q-169 0 -278 63q-132 77 -144 232h232q36 -45 90 -60q39 -12 110 -12q59 0 101 14q53 18 80 58h231z" />
    <glyph glyph-name="uni1EAF" unicode="&#x1eaf;" horiz-adv-x="1441" 
d="M976 0v123h-4q-43 -82 -143 -125q-86 -37 -189 -37q-257 0 -417 177q-154 172 -154 431q0 255 157 428q163 179 414 179q102 0 188 -38q96 -42 144 -122h4v121h340v-1137h-340zM895 776q-81 82 -205 82q-123 0 -203 -86q-78 -83 -78 -207q0 -119 81 -202q83 -84 202 -84
q123 0 204 83q80 83 80 207q0 125 -81 207zM770 1588l-96 201l492 264l108 -242zM1198 1594q-10 -155 -144 -232q-110 -63 -278 -63q-169 0 -278 63q-132 77 -144 232h232q36 -45 90 -60q39 -12 110 -12q59 0 101 14q53 18 80 58h231z" />
    <glyph glyph-name="uni1EB3" unicode="&#x1eb3;" horiz-adv-x="1441" 
d="M976 0v123h-4q-43 -82 -143 -125q-86 -37 -189 -37q-257 0 -417 177q-154 172 -154 431q0 255 157 428q163 179 414 179q102 0 188 -38q96 -42 144 -122h4v121h340v-1137h-340zM895 776q-81 82 -205 82q-123 0 -203 -86q-78 -83 -78 -207q0 -119 81 -202q83 -84 202 -84
q123 0 204 83q80 83 80 207q0 125 -81 207zM1030 1812q-12 -19 -29 -39q-14 -16 -34 -35l-35 -32q-19 -18 -30 -31q-31 -35 -34 -68h-174q1 46 28 90q11 17 28 36q12 14 31 33l31 31q17 18 28 31q26 34 26 65q0 62 -58 62q-41 0 -57 -30q-11 -20 -12 -66h-183q0 4 -1 9v9
q0 110 77 181q75 68 186 68q153 0 216 -120q24 -45 24 -92q0 -55 -28 -102zM1198 1594q-10 -155 -144 -232q-110 -63 -278 -63q-169 0 -278 63q-132 77 -144 232h232q36 -45 90 -60q39 -12 110 -12q59 0 101 14q53 18 80 58h231z" />
    <glyph glyph-name="uni1EB5" unicode="&#x1eb5;" horiz-adv-x="1441" 
d="M976 0v123h-4q-43 -82 -143 -125q-86 -37 -189 -37q-257 0 -417 177q-154 172 -154 431q0 255 157 428q163 179 414 179q102 0 188 -38q96 -42 144 -122h4v121h340v-1137h-340zM895 776q-81 82 -205 82q-123 0 -203 -86q-78 -83 -78 -207q0 -119 81 -202q83 -84 202 -84
q123 0 204 83q80 83 80 207q0 125 -81 207zM1183 1724q-121 -76 -231 -76q-35 0 -81 9l-169 36q-45 8 -78 8q-37 0 -75 -11l-73 -27l-122 180q57 33 108 50q61 21 117 21q37 0 83 -8q19 -3 42 -8l82 -19q23 -5 41 -8q46 -8 84 -8q67 0 149 35zM1198 1594q-10 -155 -144 -232
q-110 -63 -278 -63q-169 0 -278 63q-132 77 -144 232h232q36 -45 90 -60q39 -12 110 -12q59 0 101 14q53 18 80 58h231z" />
    <glyph glyph-name="uni1EB7" unicode="&#x1eb7;" horiz-adv-x="1441" 
d="M976 0v123h-4q-43 -82 -143 -125q-86 -37 -189 -37q-257 0 -417 177q-154 172 -154 431q0 255 157 428q163 179 414 179q102 0 188 -38q96 -42 144 -122h4v121h340v-1137h-340zM895 776q-81 82 -205 82q-123 0 -203 -86q-78 -83 -78 -207q0 -119 81 -202q83 -84 202 -84
q123 0 204 83q80 83 80 207q0 125 -81 207zM588 -491v309h326v-309h-326zM1198 1594q-10 -155 -144 -232q-110 -63 -278 -63q-169 0 -278 63q-132 77 -144 232h232q36 -45 90 -60q39 -12 110 -12q59 0 101 14q53 18 80 58h231z" />
    <glyph glyph-name="egrave" unicode="&#xe8;" horiz-adv-x="1323" 
d="M1249 465h-852q32 -215 266 -215q122 0 207 106h348q-76 -177 -218 -282q-151 -111 -337 -111q-249 0 -425 177q-177 176 -177 425q0 250 173 429q175 182 423 182q258 0 431 -182q169 -179 169 -439q0 -49 -8 -90zM917 694q-42 195 -258 195t-258 -195h516zM827 1257
l-506 222l105 239l495 -262z" />
    <glyph glyph-name="eacute" unicode="&#xe9;" horiz-adv-x="1323" 
d="M1249 465h-852q32 -215 266 -215q122 0 207 106h348q-76 -177 -218 -282q-151 -111 -337 -111q-249 0 -425 177q-177 176 -177 425q0 250 173 429q175 182 423 182q258 0 431 -182q169 -179 169 -439q0 -49 -8 -90zM917 694q-42 195 -258 195t-258 -195h516zM499 1272
l-96 201l492 264l108 -242z" />
    <glyph glyph-name="uni1EBB" unicode="&#x1ebb;" horiz-adv-x="1323" 
d="M1249 465h-852q32 -215 266 -215q122 0 207 106h348q-76 -177 -218 -282q-151 -111 -337 -111q-249 0 -425 177q-177 176 -177 425q0 250 173 429q175 182 423 182q258 0 431 -182q169 -179 169 -439q0 -49 -8 -90zM917 694q-42 195 -258 195t-258 -195h516zM882 1487
q-12 -19 -29 -39q-14 -16 -34 -35l-34 -32q-20 -18 -31 -31q-31 -35 -33 -68h-174q0 46 27 90q11 17 28 36q12 14 31 33l32 31q17 18 27 31q27 34 27 65q0 62 -58 62q-42 0 -57 -30q-12 -20 -12 -66h-183q-1 4 -1 9v9q0 110 76 181q75 68 187 68q152 0 216 -120
q24 -45 24 -92q0 -55 -29 -102z" />
    <glyph glyph-name="uni1EBD" unicode="&#x1ebd;" horiz-adv-x="1323" 
d="M1249 465h-852q32 -215 266 -215q122 0 207 106h348q-76 -177 -218 -282q-151 -111 -337 -111q-249 0 -425 177q-177 176 -177 425q0 250 173 429q175 182 423 182q258 0 431 -182q169 -179 169 -439q0 -49 -8 -90zM917 694q-42 195 -258 195t-258 -195h516zM1074 1409
q-121 -76 -232 -76q-34 0 -80 9l-169 36q-46 8 -78 8q-37 0 -76 -11l-72 -27l-123 180q57 33 108 50q62 21 118 21q37 0 83 -8q18 -3 41 -8l83 -19q22 -5 41 -8q46 -8 83 -8q68 0 150 35z" />
    <glyph glyph-name="uni1EB9" unicode="&#x1eb9;" horiz-adv-x="1323" 
d="M1249 465h-852q32 -215 266 -215q122 0 207 106h348q-76 -177 -218 -282q-151 -111 -337 -111q-249 0 -425 177q-177 176 -177 425q0 250 173 429q175 182 423 182q258 0 431 -182q169 -179 169 -439q0 -49 -8 -90zM917 694q-42 195 -258 195t-258 -195h516zM496 -491
v309h326v-309h-326z" />
    <glyph glyph-name="ecircumflex" unicode="&#xea;" horiz-adv-x="1323" 
d="M1249 465h-852q32 -215 266 -215q122 0 207 106h348q-76 -177 -218 -282q-151 -111 -337 -111q-249 0 -425 177q-177 176 -177 425q0 250 173 429q175 182 423 182q258 0 431 -182q169 -179 169 -439q0 -49 -8 -90zM917 694q-42 195 -258 195t-258 -195h516zM757 1311
l-94 119l-94 -119h-332l320 340h221l307 -340h-328z" />
    <glyph glyph-name="uni1EC1" unicode="&#x1ec1;" horiz-adv-x="1323" 
d="M1249 465h-852q32 -215 266 -215q122 0 207 106h348q-76 -177 -218 -282q-151 -111 -337 -111q-249 0 -425 177q-177 176 -177 425q0 250 173 429q175 182 423 182q258 0 431 -182q169 -179 169 -439q0 -49 -8 -90zM917 694q-42 195 -258 195t-258 -195h516zM1003 1591
l-506 222l105 239l495 -262zM757 1311l-94 119l-94 -119h-332l320 340h221l307 -340h-328z" />
    <glyph glyph-name="uni1EBF" unicode="&#x1ebf;" horiz-adv-x="1323" 
d="M1249 465h-852q32 -215 266 -215q122 0 207 106h348q-76 -177 -218 -282q-151 -111 -337 -111q-249 0 -425 177q-177 176 -177 425q0 250 173 429q175 182 423 182q258 0 431 -182q169 -179 169 -439q0 -49 -8 -90zM917 694q-42 195 -258 195t-258 -195h516zM1009 1476
l-96 201l492 264l108 -242zM757 1311l-94 119l-94 -119h-332l320 340h221l307 -340h-328z" />
    <glyph glyph-name="uni1EC3" unicode="&#x1ec3;" horiz-adv-x="1323" 
d="M1249 465h-852q32 -215 266 -215q122 0 207 106h348q-76 -177 -218 -282q-151 -111 -337 -111q-249 0 -425 177q-177 176 -177 425q0 250 173 429q175 182 423 182q258 0 431 -182q169 -179 169 -439q0 -49 -8 -90zM917 694q-42 195 -258 195t-258 -195h516zM1225 1803
q-12 -19 -29 -39q-14 -16 -34 -35l-34 -32q-20 -18 -31 -31q-31 -35 -33 -68h-174q0 46 27 90q11 17 28 36q12 14 31 33l32 31q17 18 27 31q27 34 27 65q0 62 -58 62q-42 0 -57 -30q-12 -20 -12 -66h-183q-1 4 -1 9v9q0 110 76 181q75 68 187 68q152 0 216 -120
q24 -45 24 -92q0 -55 -29 -102zM757 1311l-94 119l-94 -119h-332l320 340h221l307 -340h-328z" />
    <glyph glyph-name="uni1EC5" unicode="&#x1ec5;" horiz-adv-x="1323" 
d="M1249 465h-852q32 -215 266 -215q122 0 207 106h348q-76 -177 -218 -282q-151 -111 -337 -111q-249 0 -425 177q-177 176 -177 425q0 250 173 429q175 182 423 182q258 0 431 -182q169 -179 169 -439q0 -49 -8 -90zM917 694q-42 195 -258 195t-258 -195h516zM1130 1752
q-121 -76 -232 -76q-34 0 -80 9l-169 36q-46 8 -78 8q-37 0 -76 -11l-72 -27l-123 180q57 33 108 50q62 21 118 21q37 0 83 -8q18 -3 41 -8l83 -19q22 -5 41 -8q46 -8 83 -8q68 0 150 35zM757 1311l-94 119l-94 -119h-332l320 340h221l307 -340h-328z" />
    <glyph glyph-name="uni1EC7" unicode="&#x1ec7;" horiz-adv-x="1323" 
d="M1249 465h-852q32 -215 266 -215q122 0 207 106h348q-76 -177 -218 -282q-151 -111 -337 -111q-249 0 -425 177q-177 176 -177 425q0 250 173 429q175 182 423 182q258 0 431 -182q169 -179 169 -439q0 -49 -8 -90zM917 694q-42 195 -258 195t-258 -195h516zM496 -491
v309h326v-309h-326zM757 1311l-94 119l-94 -119h-332l320 340h221l307 -340h-328z" />
    <glyph glyph-name="igrave" unicode="&#xec;" horiz-adv-x="585" 
d="M123 0v1137h340v-1137h-340zM408 1257l-506 222l104 239l496 -262z" />
    <glyph glyph-name="iacute" unicode="&#xed;" horiz-adv-x="585" 
d="M123 0v1137h340v-1137h-340zM182 1272l-96 201l492 264l108 -242z" />
    <glyph glyph-name="uni1EC9" unicode="&#x1ec9;" horiz-adv-x="585" 
d="M122 0v1137h340v-1137h-340zM538 1487q-12 -19 -30 -39q-13 -16 -34 -35l-34 -32q-19 -18 -31 -31q-30 -35 -33 -68h-174q1 46 28 90q11 17 27 36q12 14 32 33l31 31q17 18 27 31q27 34 27 65q0 62 -58 62q-41 0 -57 -30q-11 -20 -12 -66h-183q-1 4 -1 9v9q0 110 77 181
q74 68 186 68q152 0 216 -120q24 -45 24 -92q0 -55 -28 -102z" />
    <glyph glyph-name="itilde" unicode="&#x129;" horiz-adv-x="585" 
d="M122 0v1137h340v-1137h-340zM711 1317q-120 -76 -231 -76q-34 0 -81 9l-168 36q-46 8 -79 8q-36 0 -75 -11l-72 -27l-123 180q57 33 108 50q62 21 117 21q38 0 84 -8q18 -3 41 -8l82 -19q23 -5 42 -8q46 -8 83 -8q67 0 150 35z" />
    <glyph glyph-name="uni1ECB" unicode="&#x1ecb;" horiz-adv-x="585" 
d="M122 1257v259h340v-259h-340zM122 0v1137h340v-1137h-340zM129 -491v309h326v-309h-326z" />
    <glyph glyph-name="ograve" unicode="&#xf2;" horiz-adv-x="1363" 
d="M1118 137q-175 -172 -437 -172t-436 172q-176 172 -176 432q0 261 176 433q174 172 436 172t437 -172q176 -172 176 -433q0 -260 -176 -432zM877 770q-79 86 -196 86q-116 0 -195 -86q-77 -83 -77 -201q0 -117 77 -201q79 -85 195 -85q117 0 196 85q77 84 77 201
q0 118 -77 201zM847 1257l-506 222l105 239l495 -262z" />
    <glyph glyph-name="oacute" unicode="&#xf3;" horiz-adv-x="1363" 
d="M1118 137q-175 -172 -437 -172t-436 172q-176 172 -176 432q0 261 176 433q174 172 436 172t437 -172q176 -172 176 -433q0 -260 -176 -432zM877 770q-79 86 -196 86q-116 0 -195 -86q-77 -83 -77 -201q0 -117 77 -201q79 -85 195 -85q117 0 196 85q77 84 77 201
q0 118 -77 201zM520 1272l-97 201l492 264l108 -242z" />
    <glyph glyph-name="uni1ECF" unicode="&#x1ecf;" horiz-adv-x="1363" 
d="M1118 137q-175 -172 -437 -172t-436 172q-176 172 -176 432q0 261 176 433q174 172 436 172t437 -172q176 -172 176 -433q0 -260 -176 -432zM877 770q-79 86 -196 86q-116 0 -195 -86q-77 -83 -77 -201q0 -117 77 -201q79 -85 195 -85q117 0 196 85q77 84 77 201
q0 118 -77 201zM904 1487q-11 -19 -29 -39q-13 -16 -34 -35l-34 -32q-19 -18 -31 -31q-30 -35 -33 -68h-174q1 46 28 90q11 17 27 36q12 14 32 33l31 31q17 18 27 31q27 34 27 65q0 62 -58 62q-41 0 -57 -30q-11 -20 -12 -66h-183q-1 4 -1 9v9q0 110 77 181q74 68 186 68
q152 0 216 -120q24 -45 24 -92q0 -55 -29 -102z" />
    <glyph glyph-name="otilde" unicode="&#xf5;" horiz-adv-x="1363" 
d="M1118 137q-175 -172 -437 -172t-436 172q-176 172 -176 432q0 261 176 433q174 172 436 172t437 -172q176 -172 176 -433q0 -260 -176 -432zM877 770q-79 86 -196 86q-116 0 -195 -86q-77 -83 -77 -201q0 -117 77 -201q79 -85 195 -85q117 0 196 85q77 84 77 201
q0 118 -77 201zM1097 1409q-120 -76 -231 -76q-35 0 -81 9l-169 36q-45 8 -78 8q-37 0 -75 -11l-72 -27l-123 180q57 33 108 50q61 21 117 21q37 0 83 -8q19 -3 42 -8l82 -19q23 -5 41 -8q46 -8 84 -8q67 0 149 35z" />
    <glyph glyph-name="uni1ECD" unicode="&#x1ecd;" horiz-adv-x="1363" 
d="M1118 137q-175 -172 -437 -172t-436 172q-176 172 -176 432q0 261 176 433q174 172 436 172t437 -172q176 -172 176 -433q0 -260 -176 -432zM877 770q-79 86 -196 86q-116 0 -195 -86q-77 -83 -77 -201q0 -117 77 -201q79 -85 195 -85q117 0 196 85q77 84 77 201
q0 118 -77 201zM519 -491v309h325v-309h-325z" />
    <glyph glyph-name="ocircumflex" unicode="&#xf4;" horiz-adv-x="1363" 
d="M1118 137q-175 -172 -437 -172t-436 172q-176 172 -176 432q0 261 176 433q174 172 436 172t437 -172q176 -172 176 -433q0 -260 -176 -432zM877 770q-79 86 -196 86q-116 0 -195 -86q-77 -83 -77 -201q0 -117 77 -201q79 -85 195 -85q117 0 196 85q77 84 77 201
q0 118 -77 201zM778 1311l-95 119l-94 -119h-332l320 340h221l307 -340h-327z" />
    <glyph glyph-name="uni1ED3" unicode="&#x1ed3;" horiz-adv-x="1363" 
d="M1118 137q-175 -172 -437 -172t-436 172q-176 172 -176 432q0 261 176 433q174 172 436 172t437 -172q176 -172 176 -433q0 -260 -176 -432zM877 770q-79 86 -196 86q-116 0 -195 -86q-77 -83 -77 -201q0 -117 77 -201q79 -85 195 -85q117 0 196 85q77 84 77 201
q0 118 -77 201zM1004 1627l-506 222l105 239l495 -262zM778 1311l-95 119l-94 -119h-332l320 340h221l307 -340h-327z" />
    <glyph glyph-name="uni1ED1" unicode="&#x1ed1;" horiz-adv-x="1363" 
d="M1118 137q-175 -172 -437 -172t-436 172q-176 172 -176 432q0 261 176 433q174 172 436 172t437 -172q176 -172 176 -433q0 -260 -176 -432zM877 770q-79 86 -196 86q-116 0 -195 -86q-77 -83 -77 -201q0 -117 77 -201q79 -85 195 -85q117 0 196 85q77 84 77 201
q0 118 -77 201zM1038 1476l-97 201l492 264l108 -242zM778 1311l-95 119l-94 -119h-332l320 340h221l307 -340h-327z" />
    <glyph glyph-name="uni1ED5" unicode="&#x1ed5;" horiz-adv-x="1363" 
d="M1118 137q-175 -172 -437 -172t-436 172q-176 172 -176 432q0 261 176 433q174 172 436 172t437 -172q176 -172 176 -433q0 -260 -176 -432zM877 770q-79 86 -196 86q-116 0 -195 -86q-77 -83 -77 -201q0 -117 77 -201q79 -85 195 -85q117 0 196 85q77 84 77 201
q0 118 -77 201zM1247 1784q-11 -19 -29 -39q-13 -16 -34 -35l-34 -32q-19 -18 -31 -31q-30 -35 -33 -68h-174q1 46 28 90q11 17 27 36q12 14 32 33l31 31q17 18 27 31q27 34 27 65q0 62 -58 62q-41 0 -57 -30q-11 -20 -12 -66h-183q-1 4 -1 9v9q0 110 77 181q74 68 186 68
q152 0 216 -120q24 -45 24 -92q0 -55 -29 -102zM778 1311l-95 119l-94 -119h-332l320 340h221l307 -340h-327z" />
    <glyph glyph-name="uni1ED7" unicode="&#x1ed7;" horiz-adv-x="1363" 
d="M1118 137q-175 -172 -437 -172t-436 172q-176 172 -176 432q0 261 176 433q174 172 436 172t437 -172q176 -172 176 -433q0 -260 -176 -432zM877 770q-79 86 -196 86q-116 0 -195 -86q-77 -83 -77 -201q0 -117 77 -201q79 -85 195 -85q117 0 196 85q77 84 77 201
q0 118 -77 201zM1180 1753q-120 -76 -231 -76q-35 0 -81 9l-169 36q-45 8 -78 8q-37 0 -75 -11l-72 -27l-123 180q57 33 108 50q61 21 117 21q37 0 83 -8q19 -3 42 -8l82 -19q23 -5 41 -8q46 -8 84 -8q67 0 149 35zM778 1311l-95 119l-94 -119h-332l320 340h221l307 -340
h-327z" />
    <glyph glyph-name="uni1ED9" unicode="&#x1ed9;" horiz-adv-x="1363" 
d="M1118 137q-175 -172 -437 -172t-436 172q-176 172 -176 432q0 261 176 433q174 172 436 172t437 -172q176 -172 176 -433q0 -260 -176 -432zM877 770q-79 86 -196 86q-116 0 -195 -86q-77 -83 -77 -201q0 -117 77 -201q79 -85 195 -85q117 0 196 85q77 84 77 201
q0 118 -77 201zM519 -491v309h325v-309h-325zM778 1311l-95 119l-94 -119h-332l320 340h221l307 -340h-327z" />
    <glyph glyph-name="glyph216" unicode="&#xf9;" horiz-adv-x="1298" 
d="M853 0v121h-4q-42 -87 -122 -125q-69 -33 -173 -33q-217 0 -334 143q-64 80 -85 166q-17 65 -17 185v680h340v-629q0 -110 34 -162q42 -65 148 -65q195 0 195 231v625h340v-1137h-322zM743 1257l-506 222l104 239l496 -262z" />
    <glyph glyph-name="glyph217" unicode="&#xfa;" horiz-adv-x="1298" 
d="M853 0v121h-4q-42 -87 -122 -125q-69 -33 -173 -33q-217 0 -334 143q-64 80 -85 166q-17 65 -17 185v680h340v-629q0 -110 34 -162q42 -65 148 -65q195 0 195 231v625h340v-1137h-322zM558 1272l-96 201l492 264l108 -242z" />
    <glyph glyph-name="uni1EE7" unicode="&#x1ee7;" horiz-adv-x="1298" 
d="M853 0v121h-4q-42 -87 -122 -125q-69 -33 -173 -33q-217 0 -334 143q-64 80 -85 166q-17 65 -17 185v680h340v-629q0 -110 34 -162q42 -65 148 -65q195 0 195 231v625h340v-1137h-322zM904 1487q-11 -19 -29 -39q-14 -16 -34 -35l-34 -32q-20 -18 -31 -31
q-30 -35 -33 -68h-174q0 46 27 90q11 17 28 36q12 14 31 33l32 31q17 18 27 31q27 34 27 65q0 62 -58 62q-42 0 -57 -30q-11 -20 -12 -66h-183q-1 4 -1 9v9q0 110 76 181q75 68 187 68q152 0 216 -120q24 -45 24 -92q0 -55 -29 -102z" />
    <glyph glyph-name="utilde" unicode="&#x169;" horiz-adv-x="1298" 
d="M853 0v121h-4q-42 -87 -122 -125q-69 -33 -173 -33q-217 0 -334 143q-64 80 -85 166q-17 65 -17 185v680h340v-629q0 -110 34 -162q42 -65 148 -65q195 0 195 231v625h340v-1137h-322zM1097 1409q-121 -76 -231 -76q-35 0 -81 9l-169 36q-45 8 -78 8q-37 0 -75 -11
l-73 -27l-122 180q57 33 108 50q61 21 117 21q37 0 83 -8q19 -3 42 -8l82 -19q23 -5 41 -8q46 -8 84 -8q67 0 149 35z" />
    <glyph glyph-name="uni1EE5" unicode="&#x1ee5;" horiz-adv-x="1298" 
d="M853 0v121h-4q-42 -87 -122 -125q-69 -33 -173 -33q-217 0 -334 143q-64 80 -85 166q-17 65 -17 185v680h340v-629q0 -110 34 -162q42 -65 148 -65q195 0 195 231v625h340v-1137h-322zM518 -491v309h326v-309h-326z" />
    <glyph glyph-name="uhorn" unicode="&#x1b0;" horiz-adv-x="1298" 
d="M853 0v121h-4q-42 -87 -122 -125q-69 -33 -173 -33q-217 0 -334 143q-64 80 -85 166q-17 65 -17 185v680h340v-629q0 -110 34 -162q42 -65 148 -65q195 0 195 231v625h340v-1137h-322zM1172 1401h229v-235q-14 -145 -95.5 -216t-184.5 -83l-99 -8l7 144l39 -1q24 1 80 22
q104 51 104 149h-80v228z" />
    <glyph glyph-name="uni1EEB" unicode="&#x1eeb;" horiz-adv-x="1298" 
d="M742 1257l-505 222l104 239l496 -262zM1175 878v-878h-322v121h-4q-42 -87 -122 -125q-69 -33 -173 -33q-217 0 -334 143q-64 80 -86 166q-16 65 -16 185v680h340v-629q0 -110 33 -162q43 -65 149 -65q195 0 195 231v625h340v-98q77 50 77 134h-80v228h229v-235
q-14 -145 -95 -216q-60 -52 -131 -72z" />
    <glyph glyph-name="uni1EE9" unicode="&#x1ee9;" horiz-adv-x="1298" 
d="M558 1272l-96 201l491 264l109 -242zM1175 878v-878h-322v121h-4q-42 -87 -122 -125q-69 -33 -173 -33q-217 0 -334 143q-64 80 -86 166q-16 65 -16 185v680h340v-629q0 -110 33 -162q43 -65 149 -65q195 0 195 231v625h340v-98q77 50 77 134h-80v228h229v-235
q-14 -145 -95 -216q-60 -52 -131 -72z" />
    <glyph glyph-name="uni1EED" unicode="&#x1eed;" horiz-adv-x="1298" 
d="M904 1487q-12 -19 -29 -39q-14 -16 -34 -35l-34 -32q-20 -18 -31 -31q-31 -35 -34 -68h-174q1 46 28 90q11 17 28 36q12 14 31 33l32 31q17 18 27 31q26 34 26 65q0 62 -58 62q-41 0 -57 -30q-11 -20 -12 -66h-183v9l-1 9q0 110 77 181q75 68 186 68q153 0 216 -120
q24 -45 24 -92q0 -55 -28 -102zM1175 878v-878h-322v121h-4q-42 -87 -122 -125q-69 -33 -173 -33q-217 0 -334 143q-64 80 -86 166q-16 65 -16 185v680h340v-629q0 -110 33 -162q43 -65 149 -65q195 0 195 231v625h340v-98q77 50 77 134h-80v228h229v-235q-14 -145 -95 -216
q-60 -52 -131 -72z" />
    <glyph glyph-name="uni1EEF" unicode="&#x1eef;" horiz-adv-x="1298" 
d="M1097 1409q-121 -76 -232 -76q-34 0 -80 9l-169 36q-46 8 -78 8q-37 0 -76 -11l-72 -27l-123 180q57 33 108 50q62 21 118 21q37 0 83 -8q18 -3 41 -8l83 -19q22 -5 41 -8q46 -8 83 -8q68 0 150 35zM1175 878v-878h-322v121h-4q-42 -87 -122 -125q-69 -33 -173 -33
q-217 0 -334 143q-64 80 -86 166q-16 65 -16 185v680h340v-629q0 -110 33 -162q43 -65 149 -65q195 0 195 231v625h340v-98q77 50 77 134h-80v228h229v-235q-14 -145 -95 -216q-60 -52 -131 -72z" />
    <glyph glyph-name="uni1EF1" unicode="&#x1ef1;" horiz-adv-x="1298" 
d="M518 -491v309h326v-309h-326zM1175 878v-878h-322v121h-4q-42 -87 -122 -125q-69 -33 -173 -33q-217 0 -334 143q-64 80 -86 166q-16 65 -16 185v680h340v-629q0 -110 33 -162q43 -65 149 -65q195 0 195 231v625h340v-98q77 50 77 134h-80v228h229v-235
q-14 -145 -95 -216q-60 -52 -131 -72z" />
    <glyph glyph-name="ohorn" unicode="&#x1a1;" horiz-adv-x="1363" 
d="M876 770q-79 86 -195 86t-195 -86q-77 -83 -77 -201q0 -117 77 -201q79 -85 195 -85t195 85q77 84 77 201q0 118 -77 201zM1180 931q113 -152 113 -362q0 -260 -175 -432t-437 -172t-437 172t-175 432q0 261 175 433t437 172q231 0 394 -133q75 49 75 132h-80v228h229
v-235q-14 -145 -95 -216q-12 -10 -24 -19z" />
    <glyph glyph-name="uni1EDD" unicode="&#x1edd;" horiz-adv-x="1363" 
d="M876 770q-79 86 -195 86t-195 -86q-77 -83 -77 -201q0 -117 77 -201q79 -85 195 -85t195 85q77 84 77 201q0 118 -77 201zM847 1257l-506 222l104 239l496 -262zM1180 931q113 -152 113 -362q0 -260 -175 -432t-437 -172t-437 172t-175 432q0 261 175 433t437 172
q231 0 394 -133q75 49 75 132h-80v228h229v-235q-14 -145 -95 -216q-12 -10 -24 -19z" />
    <glyph glyph-name="uni1EDB" unicode="&#x1edb;" horiz-adv-x="1363" 
d="M876 770q-79 86 -195 86t-195 -86q-77 -83 -77 -201q0 -117 77 -201q79 -85 195 -85t195 85q77 84 77 201q0 118 -77 201zM519 1272l-96 201l491 264l109 -242zM1180 931q113 -152 113 -362q0 -260 -175 -432t-437 -172t-437 172t-175 432q0 261 175 433t437 172
q231 0 394 -133q75 49 75 132h-80v228h229v-235q-14 -145 -95 -216q-12 -10 -24 -19z" />
    <glyph glyph-name="uni1EDF" unicode="&#x1edf;" horiz-adv-x="1363" 
d="M876 770q-79 86 -195 86t-195 -86q-77 -83 -77 -201q0 -117 77 -201q79 -85 195 -85t195 85q77 84 77 201q0 118 -77 201zM904 1487q-12 -19 -29 -39q-14 -16 -34 -35l-34 -32q-20 -18 -31 -31q-31 -35 -34 -68h-174q1 46 28 90q11 17 28 36q12 14 31 33l32 31
q17 18 27 31q26 34 26 65q0 62 -58 62q-41 0 -57 -30q-11 -20 -12 -66h-183v9l-1 9q0 110 77 181q75 68 186 68q153 0 216 -120q24 -45 24 -92q0 -55 -28 -102zM1180 931q113 -152 113 -362q0 -260 -175 -432t-437 -172t-437 172t-175 432q0 261 175 433t437 172
q231 0 394 -133q75 49 75 132h-80v228h229v-235q-14 -145 -95 -216q-12 -10 -24 -19z" />
    <glyph glyph-name="uni1EE1" unicode="&#x1ee1;" horiz-adv-x="1363" 
d="M876 770q-79 86 -195 86t-195 -86q-77 -83 -77 -201q0 -117 77 -201q79 -85 195 -85t195 85q77 84 77 201q0 118 -77 201zM1181 1511q-121 -76 -232 -76q-34 0 -80 9l-169 36q-46 8 -78 8q-37 0 -76 -11l-72 -27l-123 180q57 33 108 50q62 21 118 21q37 0 83 -8
q18 -3 41 -8l83 -19q22 -5 41 -8q46 -8 83 -8q68 0 150 35zM1180 931q113 -152 113 -362q0 -260 -175 -432t-437 -172t-437 172t-175 432q0 261 175 433t437 172q231 0 394 -133q75 49 75 132h-80v228h229v-235q-14 -145 -95 -216q-12 -10 -24 -19z" />
    <glyph glyph-name="uni1EE3" unicode="&#x1ee3;" horiz-adv-x="1363" 
d="M876 770q-79 86 -195 86t-195 -86q-77 -83 -77 -201q0 -117 77 -201q79 -85 195 -85t195 85q77 84 77 201q0 118 -77 201zM518 -491v309h326v-309h-326zM1180 931q113 -152 113 -362q0 -260 -175 -432t-437 -172t-437 172t-175 432q0 261 175 433t437 172q231 0 394 -133
q75 49 75 132h-80v228h229v-235q-14 -145 -95 -216q-12 -10 -24 -19z" />
    <glyph glyph-name="ygrave" unicode="&#x1ef3;" horiz-adv-x="1175" 
d="M604 -379h-360l180 436l-422 1080h362l228 -660h4l217 660h360zM253 1495l109 242l491 -264l-96 -201z" />
    <glyph glyph-name="glyph234" unicode="&#xfd;" horiz-adv-x="1175" 
d="M604 -379h-360l180 436l-422 1080h362l228 -660h4l217 660h360zM498 1272l-97 201l492 264l108 -242z" />
    <glyph glyph-name="uni1EF7" unicode="&#x1ef7;" horiz-adv-x="1175" 
d="M604 -379h-360l180 436l-422 1080h362l228 -660h4l217 660h360zM868 1487q-12 -19 -29 -39q-14 -16 -34 -35l-34 -32q-20 -18 -31 -31q-31 -35 -34 -68h-174q1 46 28 90q11 17 28 36q12 14 31 33l32 31q17 18 27 31q26 34 26 65q0 62 -58 62q-41 0 -57 -30
q-11 -20 -12 -66h-183v9l-1 9q0 110 77 181q75 68 186 68q153 0 216 -120q24 -45 24 -92q0 -55 -28 -102z" />
    <glyph glyph-name="uni1EF9" unicode="&#x1ef9;" horiz-adv-x="1175" 
d="M604 -379h-360l180 436l-422 1080h362l228 -660h4l217 660h360zM1033 1409q-121 -76 -232 -76q-34 0 -80 9l-169 36q-46 8 -78 8q-37 0 -76 -11l-72 -27l-123 180q57 33 108 50q62 21 118 21q37 0 83 -8q18 -3 41 -8l83 -19q22 -5 41 -8q46 -8 83 -8q68 0 150 35z" />
    <glyph glyph-name="uni1EF5" unicode="&#x1ef5;" horiz-adv-x="1175" 
d="M604 -379h-360l180 436l-422 1080h362l228 -660h4l217 660h360zM713 -491v309h326v-309h-326z" />
    <glyph glyph-name="divide" unicode="&#xf7;" horiz-adv-x="1706" 
 />
    <glyph glyph-name="ugrave" horiz-adv-x="582" 
 />
    <glyph glyph-name="uacute" horiz-adv-x="580" 
 />
    <glyph glyph-name="yacute" horiz-adv-x="629" 
 />
    <glyph glyph-name="Ccaron" unicode="&#x10c;" horiz-adv-x="1274" 
 />
    <glyph glyph-name="ccaron" unicode="&#x10d;" horiz-adv-x="922" 
 />
    <glyph glyph-name="Dslash" unicode="&#x110;" horiz-adv-x="1581" 
d="M1314 210q-200 -210 -544 -210h-572v606h-137v340h137v570h510q111 0 195 -12q97 -12 174 -41q172 -65 293 -230q139 -193 139 -471q0 -346 -195 -552zM1034 1056q-95 120 -281 120h-168v-230h221v-340h-221v-266h166q190 0 285 116q86 106 86 300q0 191 -88 300z" />
    <glyph glyph-name="dcroat" unicode="&#x111;" horiz-adv-x="1429" 
d="M903 777q-82 81 -205 81q-124 0 -206 -80q-83 -81 -83 -205q0 -126 79 -208q80 -84 206 -84q127 0 209 83q81 83 81 209q0 123 -81 204zM1306 1219v-1219h-324v123h-4q-50 -85 -147 -125q-82 -35 -193 -35q-255 0 -415 178q-154 172 -154 430q0 254 153 426
q160 179 410 179q202 0 334 -136v179h-224v201h224v96h340v-96h97v-201h-97z" />
    <glyph glyph-name="quoteleft" unicode="&#x2018;" horiz-adv-x="631" 
d="M137 838v430q0 102 52 171q58 77 157 77h147v-185l-50 1q-32 -1 -53 -6q-58 -14 -58 -71v-69h161v-348h-356z" />
    <glyph glyph-name="quoteright" unicode="&#x2019;" horiz-adv-x="612" 
d="M493 1085q0 -104 -51 -172q-57 -75 -158 -75h-147v182l51 -1q32 1 53 6q58 14 58 73v69h-162v349h356v-431z" />
    <glyph glyph-name="quotedblleft" unicode="&#x201c;" horiz-adv-x="1136" 
d="M643 838v430q0 102 52 171q58 77 157 77h147v-185l-50 1q-32 -1 -53 -6q-59 -14 -59 -71v-69h162v-348h-356zM137 838v430q0 102 52 171q58 77 157 77h147v-185l-50 1q-32 -1 -53 -6q-58 -14 -58 -71v-69h161v-348h-356z" />
    <glyph glyph-name="quotedblright" unicode="&#x201d;" horiz-adv-x="1136" 
d="M999 1085q0 -104 -51 -172q-57 -75 -158 -75h-147v182l51 -1q31 1 52 6q57 14 57 73v69h-160v349h356v-431zM493 1085q0 -104 -51 -172q-57 -75 -158 -75h-147v182l51 -1q32 1 53 6q58 14 58 73v69h-162v349h356v-431z" />
    <glyph glyph-name="ellipsis" unicode="&#x2026;" horiz-adv-x="2048" 
d="M1529 0v348h354v-348h-354zM847 0v348h354v-348h-354zM165 0v348h354v-348h-354z" />
    </font>
</defs>
</svg>
